Золотой граммофон. 20-я Церемония вручения народной премии (2016.02.12) SATRip (части 1-3 из 3) скачать торрент

Модератор: Модераторы видео

  • Статистика раздачи
Размер: 3.83 ГБ   |  Зарегистрирован: 14 фев 2016, 01:02   |   .torrent скачан: 1 раз
Сидеров: 0  [ 0 байт/сек ]     Личеров: 0  [ 0 байт/сек ]  
Список файлов : Кто скачал : Раздают : Скачивают : Кто благодарил : История : Не раздающие : Запрашивали сидеров : Внешние трекеры 
  

Золотой граммофон. 20-я Церемония вручения народной премии (2016.02.12) SATRip (части 1-3 из 3)

Сообщение Админ » 14 фев 2016, 01:02

Золотой граммофон. 20-я Церемония вручения народной премии (2016.02.12) SATRip

Телекомпания: Первый канал
Жанр: Концерт
Ведущие: Иван Ургант и Дмитрий Нагиев

Описание:
Радиостанция "Русское Радио" и церемония вручения премии "Золотой Граммофон" отметили 20-летие сногсшибательным концертом, собравшим на одной сцене самых ярких звезд. Подобного размаха российский шоу-бизнес не видел давно. 55 грандиознейших номеров. Все звезды эстрады - от Иосифа Кобзона до группы MBand - и самые главные хиты. В концерте участвуют: Филипп Киркоров, Валерия, Вера Брежнева, "Винтаж", Владимир Пресняков и Наталья Подольская, A'Studio, Александр Маршал, Анита Цой, Сергей Лазарев, София Ротару, "Блестящие", Тимати, Стас Михайлов, МакSим, Лев Лещенко, Стас Пьеха, Елка, "Иванушки International", Валерий Меладзе, Полина Гагарина, Юрий Антонов, Кристина Орбакайте, Иосиф Кобзон, Нюша, Денис Майданов, Николай Басков, "Фабрика", "Любэ", Жасмин, Дима Билан, Глюк'oZa, Iowa, Николай Носков, Алсу, "Моральный кодекс", Диана Гурцкая, Зара, Дмитрий Маликов, Наргиз, ВИА Гра, Никита Пресняков с группой Multiverse, Татьяна Буланова, Джиган, Ани Лорак, "Градусы", Согдиана, Mband, Слава, "Дискотека Авария", Serebro и многие другие.

Релиз от: -=DeMoH=-
Продолжительность: ~ 03:09:39
Качество видео: SATRip

Видео: MPEG4, XviD, 704x448 (1.571), 25.000 fps, 1 799 Kbps (0.228 bit/pixel)
Аудио: AC-3, 48.0 KHz, 2 ch, 192 Kbps, CBR
Код:
Код: Выделить всё
 Формат                                   : AVI
Формат/Информация                        : Audio Video Interleave
Размер файла                             : 1,34 Гбайт
Продолжительность                        : 1 ч. 35 м.
Общий поток                              : 2000 Кбит/сек
Программа кодирования                    : VirtualDubMod 1.5.10.3 | [url=http://www.virtualdub-fr.org]www.virtualdub-fr.org[/url] || (build 2550/release)
Библиотека кодирования                   : VirtualDubMod build 2550/release

Видео
Идентификатор                            : 0
Формат                                   : MPEG-4 Visual
Профиль формата                          : Advanced [email protected]
Параметр BVOP формата                    : 2
Параметр QPel формата                    : Нет
Параметр GMC формата                     : Без точки перехода
Параметр матрицы формата                 : Default (H.263)
Идентификатор кодека                     : XVID
Идентификатор кодека/Подсказка           : XviD
Продолжительность                        : 1 ч. 35 м.
Битрейт                                  : 1799 Кбит/сек
Ширина                                   : 704 пикселя
Высота                                   : 448 пикселей
Соотношение сторон                       : 16:10
Частота кадров                           : 25,000 кадров/сек
Цветовое пространство                    : YUV
Субдискретизация насыщенности            : 4:2:0
Битовая глубина                          : 8 бит
Тип развёртки                            : Прогрессивная
Метод сжатия                             : С потерями
Бит/(Пиксели*Кадры)                      : 0.228
Размер потока                            : 1,20 Гбайт (90%)
Библиотека кодирования                   : XviD 1.2.1 (UTC 2008-12-04)

Аудио
Идентификатор                            : 1
Формат                                   : AC-3
Формат/Информация                        : Audio Coding 3
Расширение режима                        : CM (complete main)
Параметр Endianness формата              : Big
Идентификатор кодека                     : 2000
Продолжительность                        : 1 ч. 35 м.
Вид битрейта                             : Постоянный
Битрейт                                  : 192 Кбит/сек
Каналы                                   : 2 канала
Расположение каналов                     : Front: L R
Частота                                  : 48,0 КГц
Битовая глубина                          : 16 бит
Метод сжатия                             : С потерями
Размер потока                            : 131 Мбайт (10%)
Выравнивание                             : Разделение по промежуткам
Продолжительность промежутка             : 40  мс. (1,00 видеокадр)
Время предзагрузки промежутка            : 500  мс.

Скриншоты:

   
Торрент: Зарегистрирован [14 фев 2016, 01:02] Скачать торрент
Скачать торрент
О MediaGet
[ Размер 20.35 КБ / Просмотров 149 ]

Статус:
 
Приватный: Нет (DHT включён)
Размер: 3.83 ГБ (4 116 416 512 байт)
   
Аватара пользователя

Администратор
Администратор
 
Раздал: 2.33 ПБ
Скачал: 1.02 ПБ
Ратио: 2.281
Сообщения: 3718
Зарегистрирован: 07 май 2010, 17:29
Medals: 1
Лучший релиз за месяц (1)
  • Личное сообщение
  • ICQ

  • Похожие торренты
    Ответы
    Просмотры
    Последнее сообщение

Вернуться в Разное

Кто сейчас на конференции

Зарегистрированные пользователи: нет зарегистрированных пользователей

Ресурс не предоставляет электронные версии произведений, а занимается лишь коллекционированием и каталогизацией ссылок, присылаемых и публикуемых на форуме нашими читателями. Если вы являетесь правообладателем какого-либо представленного материала и не желаете чтобы ссылка на него находилась в нашем каталоге, свяжитесь с нами и мы незамедлительно удалим её. Файлы для обмена на трекере предоставлены пользователями сайта, и администрация не несёт ответственности за их содержание. Просьба не заливать файлы, защищенные авторскими правами, а также файлы нелегального содержания!
cron