Хакерские войны (2015) HDTVRip [720p-LQ] скачать торрент

Модератор: Модераторы видео

  • Статистика раздачи
Размер: 745.6 МБ   |  Зарегистрирован: 16 янв 2016, 00:37   |   .torrent скачан: 2 раз
Сидеров: 25  [ 0 байт/сек ]     Личеров: 9  [ 0 байт/сек ]  
Список файлов : Кто скачал : Раздают : Скачивают : Кто благодарил : История : Не раздающие : Запрашивали сидеров : Внешние трекеры 
  

Хакерские войны (2015) HDTVRip [720p-LQ]

Сообщение Админ » 16 янв 2016, 00:37

Хакерские войны (2015) HDTVRip [720p-LQ]

Телекомпания: RTД
Жанр: Документальный

Описание:
Отношение к хакерам в обществе носит двойственный характер.
С одной стороны, это вульгарные бандиты, только грабят они не в подворотне, а в интернете.
С другой – это своего рода Робин Гуды, разоблачающие махинации сильных мира сего и наказывающие их за неразборчивость в средствах.
После длительной подготовки ФБР смогла нанести ощутимый удар по мощной хакерской группе Anonymous, предъявив обвинения её лидерам по уголовным статьям. Однако сами хакеры уверены, что подвергаются политическим преследованиям со стороны государства.
В фильме «Хакерские войны» вы познакомитесь с членами группы Anonymous, хакерские атаки которой наводят страх на крупные компании, банки и учреждения. Государство объявило им войну – а они открыто заявляют, что настоящую угрозу обществу несёт правящая элита, которой хакеры мешают установить тотальный контроль над миром.

Продолжительность: 00:52:13
Качество видео: HDTVRip

Перевод: Многоголосый закадровый, профессиональный

Видео: Xvid, 1280х720, ~1800 kb/s
Аудио: MP3, 2 ch, 192 kb/s
Format : AVI
Format/Info : Audio Video Interleave
File size : 746 MiB
Duration : 52mn 13s
Overall bit rate : 1 996 Kbps
Writing application : MEncoder SVN-r33883(20110719-gcc4.5.2)
Writing library : MPlayer

Video
ID : 0
Format : MPEG-4 Visual
Format profile : Advanced [email protected]
Format settings, BVOP : 2
Format settings, QPel : No
Format settings, GMC : No warppoints
Format settings, Matrix : Default (H.263)
Codec ID : XVID
Codec ID/Hint : XviD
Duration : 52mn 13s
Bit rate : 1 791 Kbps
Width : 1 280 pixels
Height : 720 pixels
Display aspect ratio : 16:9
Frame rate : 25.000 fps
Color space : YUV
Chroma subsampling : 4:2:0
Bit depth : 8 bits
Scan type : Progressive
Compression mode : Lossy
Bits/(Pixel*Frame) : 0.078
Stream size : 669 MiB (90%)
Writing library : XviD 1.2.1 (UTC 2008-12-04)

Audio
ID : 1
Format : MPEG Audio
Format version : Version 1
Format profile : Layer 3
Mode : Joint stereo
Mode extension : MS Stereo
Codec ID : 55
Codec ID/Hint : MP3
Duration : 52mn 13s
Bit rate mode : Constant
Bit rate : 192 Kbps
Channel(s) : 2 channels
Sampling rate : 44.1 KHz
Compression mode : Lossy
Delay relative to video : 40ms
Stream size : 71.7 MiB (10%)
Alignment : Aligned on interleaves
Interleave, duration : 26 ms (0.65 video frame)
Interleave, preload duratio : 522 ms
Writing library : LAME3.98.4

Скриншоты:


Время раздачи: 24/7 (круглосуточно) до первых 5-ти сидов - потом по возможности
   
Торрент: Зарегистрирован [16 янв 2016, 00:37] Скачать торрент
Скачать торрент
О MediaGet
[ Размер 15.36 КБ / Просмотров 169 ]

Статус:
 
Приватный: Нет (DHT включён)
Размер: 745.6 МБ (781 816 088 байт)
   
Аватара пользователя

Администратор
Администратор
 
Раздал: 2.33 ПБ
Скачал: 1.02 ПБ
Ратио: 2.281
Сообщения: 3718
Зарегистрирован: 07 май 2010, 17:29
Medals: 1
Лучший релиз за месяц (1)
  • Личное сообщение
  • ICQ

Re: Хакерские войны (2015) HDTVRip [720p-LQ]

Сообщение L Lawliet » 23 янв 2016, 16:43

что за хрень. кто смотрел?
Играйте только в хорошее ©

:gamer:
Аватара пользователя
Серьезный пир
Серьезный пир
 
Раздал: 554.58 ГБ
Скачал: 593.41 ГБ
Ратио: 1.025
Сообщения: 225
Зарегистрирован: 18 июн 2010, 20:05
Medals: 1
1 место (1)
  • Личное сообщение
  • ICQ


Вернуться в Разное

Кто сейчас на конференции

Зарегистрированные пользователи: нет зарегистрированных пользователей

Ресурс не предоставляет электронные версии произведений, а занимается лишь коллекционированием и каталогизацией ссылок, присылаемых и публикуемых на форуме нашими читателями. Если вы являетесь правообладателем какого-либо представленного материала и не желаете чтобы ссылка на него находилась в нашем каталоге, свяжитесь с нами и мы незамедлительно удалим её. Файлы для обмена на трекере предоставлены пользователями сайта, и администрация не несёт ответственности за их содержание. Просьба не заливать файлы, защищенные авторскими правами, а также файлы нелегального содержания!
cron