Последний охотник на ведьм / The Last Witch Hunter (2015) WEBRip 1080p | Трейлер скачать торрент

Модератор: Модераторы видео

  • Статистика раздачи
Размер: 25.96 МБ   |  Зарегистрирован: 04 июн 2015, 11:01   |   .torrent скачан: 3262 раз
Сидеров: 1469  [ 0 байт/сек ]     Личеров: 29  [ 0 байт/сек ]  
Список файлов : Кто скачал : Раздают : Скачивают : Кто благодарил : История : Не раздающие : Запрашивали сидеров : Внешние трекеры 
  

Последний охотник на ведьм / The Last Witch Hunter (2015) WEBRip 1080p | Трейлер

Сообщение Админ » 04 июн 2015, 11:01

Год выпуска: 2015
Производство: США
Жанр: фэнтези, боевик, приключения
Перевод: Дублированный

Режиссер: Брек Эйснер
Продюсеры: Марк Кантон, Берни Голдманн, Адам Голдворм
Актеры: Вин Дизель, Роуз Лесли, Элайджа Вуд, Оулавюр Дарри Оулавссон, Рина Оуэн, Юли Энгельбрехт, Джозеф Гилган, Исаак Де Банколе, Армани Джексон, Майкл Халсли

Описание трейлера:
Официальный русский тизер-трейлер фильма Последний охотник на ведьм 2015 (дублированный)

Описание фильма:
Сюжет развернется вокруг бессмертного охотника на ведьм, объединяющегося с влиятельной молодой колдуньей, чтобы помешать шабашу ведьм заразить чумой все человечество.

Дата мировой премьеры: 15 октября 2015
Дата российской премьеры: 15 октября 2015


Продолжительность: 00:02:27
Качество видео: WEBRip

Видеокодек: MPEG-4 AVC/H.264
Битрейт видео: 2426 Кбит/сек
Размер кадра: 1920x800
Аудиокодек: AC3 2.0
Битрейт аудио: 126 Кбит/сек

Общее
Полное имя : Последний охотник на ведьм Русский Тизер-Трейлер (2015).mp4
Формат : MPEG-4
Профиль формата : Base Media
Идентификатор кодека : isom
Размер файла : 26,0 Мбайт
Продолжительность : 1 м. 25 с.
Общий поток : 2555 Кбит/сек
Программа кодирования : Lavf56.19.100

Видео
Идентификатор : 1
Формат : AVC
Формат/Информация : Advanced Video Codec
Профиль формата : [email protected]
Параметр CABAC формата : Да
Параметр ReFrames формата : 2 кадра
Идентификатор кодека : avc1
Идентификатор кодека/Информация : Advanced Video Coding
Продолжительность : 1 м. 25 с.
Битрейт : 2426 Кбит/сек
Ширина : 1920 пикселей
Высота : 800 пикселей
Соотношение сторон : 2,40:1
Режим частоты кадров : Постоянный
Частота кадров : 24,000 кадра/сек
Цветовое пространство : YUV
Субдискретизация насыщенности : 4:2:0
Битовая глубина : 8 бит
Тип развёртки : Прогрессивная
Бит/(Пиксели*Кадры) : 0.066
Размер потока : 24,6 Мбайт (95%)

Аудио
Идентификатор : 2
Формат : AAC
Формат/Информация : Advanced Audio Codec
Профиль формата : LC
Идентификатор кодека : 40
Продолжительность : 1 м. 25 с.
Вид битрейта : Постоянный
Битрейт : 126 Кбит/сек
Каналы : 2 канала
Расположение каналов : Front: L R
Частота : 44,1 КГц
Метод сжатия : С потерями
Размер потока : 1,28 Мбайт (5%)


Скриншоты






   
Торрент: Зарегистрирован [04 июн 2015, 11:01] Скачать торрент
Скачать торрент
О MediaGet
[ Размер 16.98 КБ / Просмотров 104 ]

Статус:
 
Приватный: Нет (DHT включён)
Размер: 25.96 МБ (27 221 783 байт)
   
Аватара пользователя

Администратор
Администратор
 
Раздал: 2.33 ПБ
Скачал: 1.02 ПБ
Ратио: 2.281
Сообщения: 3718
Зарегистрирован: 07 май 2010, 17:29
Medals: 1
Лучший релиз за месяц (1)
  • Личное сообщение
  • ICQ

Вернуться в Разное

Кто сейчас на конференции

Зарегистрированные пользователи: нет зарегистрированных пользователей

Ресурс не предоставляет электронные версии произведений, а занимается лишь коллекционированием и каталогизацией ссылок, присылаемых и публикуемых на форуме нашими читателями. Если вы являетесь правообладателем какого-либо представленного материала и не желаете чтобы ссылка на него находилась в нашем каталоге, свяжитесь с нами и мы незамедлительно удалим её. Файлы для обмена на трекере предоставлены пользователями сайта, и администрация не несёт ответственности за их содержание. Просьба не заливать файлы, защищенные авторскими правами, а также файлы нелегального содержания!
cron