Миньоны / Minions (2015) WEBRip 1080p | Трейлер скачать торрент

Модератор: Модераторы видео

  • Статистика раздачи
Размер: 437.61 МБ   |  Зарегистрирован: 04 июн 2015, 10:50   |   .torrent скачан: 1518 раз
Сидеров: 779  [ 0 байт/сек ]     Личеров: 19  [ 0 байт/сек ]  
Список файлов : Кто скачал : Раздают : Скачивают : Кто благодарил : История : Не раздающие : Запрашивали сидеров : Внешние трекеры 
  

Миньоны / Minions (2015) WEBRip 1080p | Трейлер

Сообщение Админ » 04 июн 2015, 10:50

«Ой, всё»

Год выпуска: 2015
Производство: США / Illumination Entertainment
Жанр: Мультфильм, Комедия, семейный
Перевод: Дублированный

Режиссеры: Кайл Балда, Пьер Соффин
Продюсеры: Джанет Хили, Кристофер Меледандри, Крис Рено
Актеры: Сандра Буллок, Джон Хэмм, Майкл Китон, Кэти Миксон, Эллисон Дженни, Стив Куган, Хироюки Санада, Дженнифер Сондерс, Джесс Харнелл, Пьер Соффин

Описание фильма:
Миньоны живут на планете на пару миллионов лет дольше нас. У них одна навязчивая идея — служить самой Гадкой личности из имеющихся в наличии. Динозавры, фараоны, Дракула, Наполеон — все они оказались недолговечны. И тогда миньоны рванули в Нью-Йорк. Их ждут деньги, власть, роковая суперзлодейка Скарлет Оверкилл и, конечно же, вкуснейшая «банана»! Во всяком случае, так им кажется.


Дата мировой премьеры: 18 июня 2015
Дата российской премьеры: 9 июля 2015, «UPI» 3D



Продолжительность: 00:03:20
Качество видео: WEBRip

Видеокодек: MPEG-4 AVC/H.264
Битрейт видео: ~18,0 Мбит/сек
Размер кадра: 1920x1080
Аудиокодек: AC3 5.1
Битрейт аудио: 448 Кбит/сек
Общее
Уникальный идентификатор : 178009929761279973894154521491683430420 (0x85EB772546E90011A14F3080724C5014)
Полное имя : G:ВидеоMinions (2015) WEBRip 1080p [трейлер].mkv
Формат : Matroska
Версия формата : Version 4 / Version 2
Размер файла : 438 Мбайт
Продолжительность : 3 м. 20 с.
Общий поток : 18,3 Мбит/сек
Название фильма : [l0ngb0y4nnm]
Дата кодирования : UTC 2015-05-30 19:37:02
Программа кодирования : mkvmerge v7.8.0 ('River Man') 32bit built on Mar 27 2015 16:18:02
Библиотека кодирования : Lavf55.37.101
Attachements : cover.jpg

Видео
Идентификатор : 1
Формат : AVC
Формат/Информация : Advanced Video Codec
Профиль формата : [email protected]
Параметр CABAC формата : Нет
Параметр ReFrames формата : 1 кадр
Идентификатор кодека : V_MPEG4/ISO/AVC
Продолжительность : 3 м. 20 с.
Битрейт : 18,0 Мбит/сек
Ширина : 1920 пикселей
Высота : 1080 пикселей
Соотношение сторон : 16:9
Режим частоты кадров : Постоянный
Частота кадров : 23,976 кадра/сек
Цветовое пространство : YUV
Субдискретизация насыщенности : 4:2:0
Битовая глубина : 8 бит
Тип развёртки : Прогрессивная
Бит/(Пиксели*Кадры) : 0.362
Размер потока : 418 Мбайт (96%)
Заголовок : AVC, 1920x1080 (16:9), 23.976 fps, 18.0 Mbps (0.362 bit/pixel)
Библиотека кодирования : x264 core 119
Настройки программы : cabac=0 / ref=1 / deblock=0:0:0 / analyse=0:0 / me=dia / subme=0 / psy=1 / psy_rd=1.00:0.00 / mixed_ref=0 / me_range=16 / chroma_me=1 / trellis=0 / 8x8dct=0 / cqm=0 / deadzone=21,11 / fast_pskip=1 / chroma_qp_offset=0 / threads=4 / sliced_threads=0 / nr=0 / decimate=1 / interlaced=0 / bluray_compat=0 / constrained_intra=0 / bframes=0 / weightp=0 / keyint=250 / keyint_min=23 / scenecut=0 / intra_refresh=0 / rc=abr / mbtree=0 / bitrate=18000 / ratetol=1.0 / qcomp=0.60 / qpmin=0 / qpmax=69 / qpstep=4 / ip_ratio=1.40 / aq=0
Default : Да
Forced : Нет
Дата кодирования : UTC 2015-05-14 17:06:35
HANDLER_NAME : VideoHandler
DURATION : 00:03:20.167000000
NUMBER_OF_FRAMES : 4775
NUMBER_OF_BYTES : 447507086
_STATISTICS_WRITING_APP : mkvmerge v7.8.0 ('River Man') 32bit built on Mar 27 2015 16:18:02
_STATISTICS_WRITING_DATE_UTC : 2015-05-30 19:37:02
_STATISTICS_TAGS : BPS DURATION NUMBER_OF_FRAMES NUMBER_OF_BYTES

Аудио
Идентификатор : 2
Формат : AC-3
Формат/Информация : Audio Coding 3
Расширение режима : CM (complete main)
Параметр Endianness формата : Big
Идентификатор кодека : A_AC3
Продолжительность : 3 м. 20 с.
Вид битрейта : Постоянный
Битрейт : 448 Кбит/сек
Каналы : 6 каналов
Расположение каналов : Front: L C R, Side: L R, LFE
Частота : 48,0 КГц
Битовая глубина : 16 бит
Метод сжатия : С потерями
Задержка видео : 18 мс.
Размер потока : 10,7 Мбайт (2%)
Заголовок : AC-3, 48.0 KHz, 6 ch, 448 Kbps, CBR
Default : Да
Forced : Нет
Дата кодирования : UTC 2015-05-14 17:06:35
HANDLER_NAME : SoundHandler
DURATION : 00:03:20.050000000
NUMBER_OF_FRAMES : 6224
NUMBER_OF_BYTES : 11153408
_STATISTICS_WRITING_APP : mkvmerge v7.8.0 ('River Man') 32bit built on Mar 27 2015 16:18:02
_STATISTICS_WRITING_DATE_UTC : 2015-05-30 19:37:02
_STATISTICS_TAGS : BPS DURATION NUMBER_OF_FRAMES NUMBER_OF_BYTES


Скриншоты:
   
Торрент: Зарегистрирован [04 июн 2015, 10:50] Скачать торрент
Скачать торрент
О MediaGet
[ Размер 17.68 КБ / Просмотров 97 ]

Статус:
 
Приватный: Нет (DHT включён)
Размер: 437.61 МБ (458 865 343 байт)
   
Аватара пользователя

Администратор
Администратор
 
Раздал: 2.33 ПБ
Скачал: 1.02 ПБ
Ратио: 2.281
Сообщения: 3718
Зарегистрирован: 07 май 2010, 17:29
Medals: 1
Лучший релиз за месяц (1)
  • Личное сообщение
  • ICQ

  • Похожие торренты
    Ответы
    Просмотры
    Последнее сообщение

Вернуться в Разное

Кто сейчас на конференции

Зарегистрированные пользователи: нет зарегистрированных пользователей

Ресурс не предоставляет электронные версии произведений, а занимается лишь коллекционированием и каталогизацией ссылок, присылаемых и публикуемых на форуме нашими читателями. Если вы являетесь правообладателем какого-либо представленного материала и не желаете чтобы ссылка на него находилась в нашем каталоге, свяжитесь с нами и мы незамедлительно удалим её. Файлы для обмена на трекере предоставлены пользователями сайта, и администрация не несёт ответственности за их содержание. Просьба не заливать файлы, защищенные авторскими правами, а также файлы нелегального содержания!
cron