Военный парад, посвященный 70-й годовщине Победы в ВОВ 1941-1945г + Возложение цветов к могиле Неизвестного солдата. Москва (2015.05.09) HDTVRip (Первый канал HD) скачать торрент

Модератор: Модераторы видео

  • Статистика раздачи
Размер: 1.45 ГБ   |  Зарегистрирован: 09 май 2015, 12:57   |   .torrent скачан: 27 раз
Сидеров: 684  [ 0 байт/сек ]     Личеров: 7  [ 0 байт/сек ]  
Список файлов : Кто скачал : Раздают : Скачивают : Кто благодарил : История : Не раздающие : Запрашивали сидеров : Внешние трекеры 
  

Военный парад, посвященный 70-й годовщине Победы в ВОВ 1941-1945г + Возложение цветов к могиле Неизвестного солдата. Москва (2015.05.09) HDTVRip (Первый канал HD)

Сообщение Боцман » 09 май 2015, 12:57

Военный парад, посвященный 70-й годовщине Победы в ВОВ 1941-1945г + Возложение цветов к могиле Неизвестного солдата. Москва (2015.05.09) HDTVRip

Телекомпания: Первый канал HD
Жанр: Документальный, военный парад

Описание:
Каждый год 9 мая во многих странах мира отмечают День Победы над немецко-фашистскими захватчиками. Но нигде этот праздник не празднуют с таким размахом, как в России. В 2015 году на 70-летие Дня Победы в Москве планируется самый масштабный и запоминающийся военный парад. Безусловно, каждый хотел бы увидеть это мероприятие своими глазами, однако не у всех есть возможность. В Параде Победы 2015 примут участие также и военнослужащие других стран. Сюда входят представители вооруженных сил Армении, Сербии, Азербайджана, Китая, Киргизии, Индии, Казахстана, Республики Беларусь, Таджикистана. Также впервые за всю историю празднования Дня Победы будут участвовать военнослужащие Монголии. На Параде Победы в 2015 году будет задействовано 194 единицы бронетехники, 143 самолёта и вертолёта, более 15000 военнослужащих. Начнется парад с демонстрации военной техники, которая принесла нам победу 70 лет назад - по Красной площади пройдут легендарные танки Т-34 и самоходные артиллерийский установки СУ-100. После ретро-машин зрители смогут увидеть образцы новейшей российской техники - танк нового поколения «Армата», бронетранспортер «Бумеранг», ракетный комплекс «Бастион» и другие. Так, впервые за всю историю празднования Дня Победы пройдут самоходные артиллерийские установки нового поколения "Коалиция-СВ",комплекс "Корнет-Д", стратегические ракетные комплексы "Ярс" и другие виды боевой техники. Если вы не хотите пропустить это масштабное мероприятие, и у вас нет возможности побывать на Красной площади, то на нашем сайте будет онлайн трансляция всего, что происходит на Параде в Москве. В авиационной части парада в 2015 году будет задействован 21 тип авиатехники. Зрители на Красной площади и в онлайн трансляции смогут наблюдать поистине грандиозное зрелище - в небе над Москвой пролетят тяжелые стратегические бомбардировщики Ту-160, Ту-95МС и Ту-22М3, транспортные самолеты Ил-76, Ил-78 и Ан-124, истребители Су-27, Су-30, Су-35 и многие другие. В завершении воздушной части Парада Победы экипажи МиГ-29 выстроят в небе число «70» из 15 самолетов, а штурмовики Су-25 украсят небо над столицей России дымами цветов российского флага.

Продолжительность: ~ 01:44:18
Качество видео: HDTVRip

Видеокодек: XVID
Битрейт видео: ~1800 kb/s
Размер кадра: 720 x 400
Аудиокодек: AC3, 2ch.
Битрейт аудио: 192 kb/s
Код:
Код: Выделить всё
Формат                                   : AVI
Формат/Информация                        : Audio Video Interleave
Размер файла                             : 1,45 Гбайт
Продолжительность                        : 1 ч. 44 м.
Общий поток                              : 1996 Кбит/сек

Видео
Идентификатор                            : 0
Формат                                   : MPEG-4 Visual
Профиль формата                          : Advanced [email protected]
Параметр BVOP формата                    : 2
Параметр QPel формата                    : Нет
Параметр GMC формата                     : Без точки перехода
Параметр матрицы формата                 : Default (H.263)
Идентификатор кодека                     : XVID
Идентификатор кодека/Подсказка           : XviD
Продолжительность                        : 1 ч. 44 м.
Битрейт                                  : 1792 Кбит/сек
Ширина                                   : 720 пикселей
Высота                                   : 400 пикселей
Соотношение сторон                       : 16:9
Частота кадров                           : 25,000 кадров/сек
Цветовое пространство                    : YUV
Субдискретизация насыщенности            : 4:2:0
Битовая глубина                          : 8 бит
Тип развёртки                            : Прогрессивная
Метод сжатия                             : С потерями
Бит/(Пиксели*Кадры)                      : 0.249
Размер потока                            : 1,31 Гбайт (90%)
Библиотека кодирования                   : XviD 1.2.1 (UTC 2008-12-04)

Аудио
Идентификатор                            : 1
Формат                                   : AC-3
Формат/Информация                        : Audio Coding 3
Расширение режима                        : CM (complete main)
Параметр Endianness формата              : Big
Идентификатор кодека                     : 2000
Продолжительность                        : 1 ч. 44 м.
Вид битрейта                             : Постоянный
Битрейт                                  : 192 Кбит/сек
Каналы                                   : 2 канала
Расположение каналов                     : Front: L R
Частота                                  : 48,0 КГц
Битовая глубина                          : 16 бит
Метод сжатия                             : С потерями
Размер потока                            : 143 Мбайт (10%)
Выравнивание                             : Соединение по промежуткам
Продолжительность промежутка             : 32  мс. (0,80 видеокадр)
 

Скриншоты:
   
Торрент: Зарегистрирован [09 май 2015, 12:57] Скачать торрент
Скачать торрент
О MediaGet
[ Размер 15.55 КБ / Просмотров 78 ]

Статус:
 
Приватный: Нет (DHT включён)
Размер: 1.45 ГБ (1 561 065 758 байт)
   
Хочешь стать частью команды MZ-Tracker?
Запишись
ТУТ
Аватара пользователя

Убийца клавиатуры
Убийца клавиатуры
 
Раздал: 12.57 ГБ
Скачал: 907.51 ГБ
Ратио: 0.017
Сообщения: 4358
Фото: 292
Зарегистрирован: 19 июн 2008, 23:00

Вернуться в Разное

Кто сейчас на конференции

Зарегистрированные пользователи: нет зарегистрированных пользователей

Ресурс не предоставляет электронные версии произведений, а занимается лишь коллекционированием и каталогизацией ссылок, присылаемых и публикуемых на форуме нашими читателями. Если вы являетесь правообладателем какого-либо представленного материала и не желаете чтобы ссылка на него находилась в нашем каталоге, свяжитесь с нами и мы незамедлительно удалим её. Файлы для обмена на трекере предоставлены пользователями сайта, и администрация не несёт ответственности за их содержание. Просьба не заливать файлы, защищенные авторскими правами, а также файлы нелегального содержания!
cron