Элизиум / Elysium ( Нил Бломкамп / Neill Blomkamp) [2013, Фантастика, боевик, триллер, драма, DCPrip] [4K] Трейлер скачать торрент

Модератор: Модераторы видео

  • Статистика раздачи
Размер: 1.42 ГБ   |  Зарегистрирован: 02 июл 2013, 19:49   |   .torrent скачан: 26 раз
Сидеров: 0  [ 0 байт/сек ]     Личеров: 0  [ 0 байт/сек ]  
Список файлов : Кто скачал : Раздают : Скачивают : Кто благодарил : История : Не раздающие : Запрашивали сидеров : Внешние трекеры 
  

Элизиум / Elysium ( Нил Бломкамп / Neill Blomkamp) [2013, Фантастика, боевик, триллер, драма, DCPrip] [4K] Трейлер

Сообщение Max24s » 02 июл 2013, 19:57

Элизиум / Elysium


Дата выхода: 2013
Страна: США
Жанр: фантастика, боевик, триллер
Продолжительность: 00:02:12
Перевод: Профессиональный (полное дублирование)
Режиссёр: Нил Бломкамп


В ролях: Мэтт Дэймон, Джоди Фостер, Шолто Копли, Уильям Фичтнер, Алиса Брага, Диего Луна, Талиса Сото, Вагнер Мора, Хосе Пабло Кантилльо, Карли Поуп, Она Грауэр, Майкл Шэнкс

Описание: В 2159 году существует два класса людей: очень богатые, живущие на чистой, созданной руками человека, космической станции под названием Элизиум и остальные, живущие на перенаселённой разрушенной Земле. Безжалостный правительственный чиновник Министр Роудс не остановится ни перед чем для применения анти-иммиграционных законов и сохранения роскошного образа жизни граждан Элизиума. Когда неудачника Макса загоняют в угол, он соглашается взять на себя сложную миссию, которая в случае успеха не только спасёт ему жизнь, но и может привести к равенству этих поляризованных миров.




Качество: DCPrip
Формат: MKV
Видео: MPEG-4 AVC, 4096x1716, ~ 21000 kbps, 24 fps
Аудио: AC3, 48 khz, 2 ch, 192 kbps

Код: Выделить всё
General
Unique ID                                : 225836748474947972808581323338573955722 (0xA9E6935D588B80B29FAA7ECBD578428A)
Complete name                            : D:\Elysium_trailer_1_4K .mkv
Format                                   : Matroska
Format version                           : Version 2
File size                                : 1.42 GiB
Duration                                 : 2mn 12s
Overall bit rate mode                    : Variable
Overall bit rate                         : 92.1 Mbps
Encoded date                             : UTC 2013-07-01 06:48:23
Writing application                      : mkvmerge v5.8.0 ('No Sleep / Pillow') built on Sep  2 2012 15:37:04
Writing library                          : libebml v1.2.3 + libmatroska v1.3.0

Video
ID                                       : 1
Format                                   : AVC
Format/Info                              : Advanced Video Codec
Format profile                           : [email protected]
Format settings, CABAC                   : No
Format settings, ReFrames                : 2 frames
Muxing mode                              : Header stripping
Codec ID                                 : V_MPEG4/ISO/AVC
Duration                                 : 2mn 12s
Bit rate mode                            : Variable
Bit rate                                 : 90.0 Mbps
Maximum bit rate                         : 21.0 Mbps
Width                                    : 4 096 pixels
Height                                   : 1 716 pixels
Display aspect ratio                     : 2.40:1
Frame rate mode                          : Constant
Frame rate                               : 24.000 fps
Color space                              : YUV
Chroma subsampling                       : 4:2:0
Bit depth                                : 8 bits
Scan type                                : Progressive
Bits/(Pixel*Frame)                       : 0.534
Stream size                              : 1.39 GiB (98%)
Title                                    : Elysium 2013 Trailer 1 4K
Language                                 : English
Default                                  : Yes
Forced                                   : No
Color primaries                          : BT.709
Transfer characteristics                 : BT.709
Matrix coefficients                      : BT.709

Audio
ID                                       : 2
Format                                   : AC-3
Format/Info                              : Audio Coding 3
Format profile                           : Dolby Digital
Mode extension                           : CM (complete main)
Format settings, Endianness              : Big
Muxing mode                              : Header stripping
Codec ID                                 : A_AC3
Duration                                 : 2mn 12s
Bit rate mode                            : Constant
Bit rate                                 : 192 Kbps
Channel(s)                               : 2 channels
Channel positions                        : Front: L R
Sampling rate                            : 48.0 KHz
Bit depth                                : 16 bits
Compression mode                         : Lossy
Stream size                              : 3.03 MiB (0%)
Language                                 : Russian
Default                                  : Yes
Forced                                   : No


Премьера в РФ и мире - 8 августа 2013
Настоящий :arrow:4K трейлер. Проверь возможности систем, если есть на чём смотреть ;)
   
Торрент: Зарегистрирован [02 июл 2013, 19:49] Скачать торрент
Скачать торрент
О MediaGet
[ Размер 14.79 КБ / Просмотров 187 ]

Статус:
 
Приватный: Нет (DHT включён)
Размер: 1.42 ГБ (1 523 038 329 байт)
   
del.
Аватара пользователя
Пир-флудер
Пир-флудер
 
Раздал: 89.94 ТБ
Скачал: 412 ГБ
Ратио: 229.890
Сообщения: 568
Зарегистрирован: 21 мар 2011, 10:07

  • Похожие торренты
    Ответы
    Просмотры
    Последнее сообщение

Re: Элизиум / Elysium ( Нил Бломкамп / Neill Blomkamp) [2013, Фантастика, боевик, триллер, драма, DCPrip] [4K] Трейлер

Сообщение Max24s » 02 июл 2013, 20:05

Трекер сжимает скрины. Для того, чтобы увидеть полностью - нажимайте "развернуть" вверху справа :)
del.
Аватара пользователя
Пир-флудер
Пир-флудер
 
Раздал: 89.94 ТБ
Скачал: 412 ГБ
Ратио: 229.890
Сообщения: 568
Зарегистрирован: 21 мар 2011, 10:07

Re: Элизиум / Elysium ( Нил Бломкамп / Neill Blomkamp) [2013, Фантастика, боевик, триллер, драма, DCPrip] [4K] Трейлер

Сообщение Basil23rus » 04 июл 2013, 08:09

Так это всего лишь трэйлер, но на целых 1,4 гб?????? :?
Аватара пользователя
Прохожий
Прохожий
 
Раздал: 1.93 ТБ
Скачал: 1.82 ТБ
Ратио: 1.598
Сообщения: 5
Зарегистрирован: 28 сен 2009, 00:05
Medals: 1
Преданность (1)
  • Личное сообщение
  • ICQ

Re: Элизиум / Elysium ( Нил Бломкамп / Neill Blomkamp) [2013, Фантастика, боевик, триллер, драма, DCPrip] [4K] Трейлер

Сообщение Overlord93 » 04 июл 2013, 11:41

Basil23rus, а час такого видео ~150Гб
Аватара пользователя
Модератор мобильного контента
Модератор мобильного контента
 
Раздал: 991.01 ГБ
Скачал: 477.67 ГБ
Ратио: 2.096
Сообщения: 832
Зарегистрирован: 01 ноя 2010, 10:11
Откуда: Персия-сити
  • Личное сообщение
  • Сайт
  • ICQ

Re: Элизиум / Elysium ( Нил Бломкамп / Neill Blomkamp) [2013, Фантастика, боевик, триллер, драма, DCPrip] [4K] Трейлер

Сообщение Basil23rus » 05 июл 2013, 16:37

Overlord93 писал(а):Basil23rus, а час такого видео ~150Гб

умереть, не встать... этож нада тогда свой кинотеатр иметь...
:hang:
Аватара пользователя
Прохожий
Прохожий
 
Раздал: 1.93 ТБ
Скачал: 1.82 ТБ
Ратио: 1.598
Сообщения: 5
Зарегистрирован: 28 сен 2009, 00:05
Medals: 1
Преданность (1)
  • Личное сообщение
  • ICQ


Вернуться в Разное

Кто сейчас на конференции

Зарегистрированные пользователи: нет зарегистрированных пользователей

Ресурс не предоставляет электронные версии произведений, а занимается лишь коллекционированием и каталогизацией ссылок, присылаемых и публикуемых на форуме нашими читателями. Если вы являетесь правообладателем какого-либо представленного материала и не желаете чтобы ссылка на него находилась в нашем каталоге, свяжитесь с нами и мы незамедлительно удалим её. Файлы для обмена на трекере предоставлены пользователями сайта, и администрация не несёт ответственности за их содержание. Просьба не заливать файлы, защищенные авторскими правами, а также файлы нелегального содержания!
cron