Футбол. Чемпионат Англии 2016-17. Match of the Day. 08-й тур. Обзор матчей [15.10] (2016) HDTVRip 720p скачать торрент

Спорт, футбол, хоккей, матчи, турнир, чемпионат, олимпиада, универсиада

Модератор: Модераторы видео

  • Статистика раздачи
Размер: 2.4 ГБ   |  Зарегистрирован: 16 окт 2016, 20:12   |   .torrent скачан: 0 раз
Сидеров: 0  [ 0 байт/сек ]     Личеров: 0  [ 0 байт/сек ]  
Список файлов : Кто скачал : Раздают : Скачивают : Кто благодарил : История : Не раздающие : Запрашивали сидеров : Внешние трекеры 
  

Футбол. Чемпионат Англии 2016-17. Match of the Day. 08-й тур. Обзор матчей [15.10] (2016) HDTVRip 720p

Сообщение Фаромир брат » 16 окт 2016, 20:12

Match of the Day


Вид спорта: Футбол
Год выпуска: 15.10.2016
Язык комментариев: Английский
Описание: Выпуск "Match of the Day", посвященный прошедшим в субботу матчам 8-го тура АПЛ.
Автор рипа: verum
Качество: HDTVRip
Формат видео: MKV
Видео: AVC, 1280*720, 50 fps, 3622 Kbps
Аудио: AC-3, 6 ch, 48,0 KHz, 384 Kbps
1:24:03
General
Unique ID : 0 (0x0)
Complete name : F:APLMatch of the Day 2016-2017s.16-17 Week 08match.of.the.day.2016.10.15.720p.hdtv.x264-verum.mkv
Format : Matroska
Format version : Version 4 / Version 2
File size : 2.40 GiB
Duration : 1h 24mn
Overall bit rate : 4 087 Kbps
Encoded date : UTC 2010-02-22 21:41:29
Writing application : no_variable_data
Writing library : no_variable_data

Video
ID : 1
Format : AVC
Format/Info : Advanced Video Codec
Format profile : [email protected]
Format settings, CABAC : Yes
Format settings, ReFrames : 5 frames
Codec ID : V_MPEG4/ISO/AVC
Duration : 1h 24mn
Bit rate : 3 622 Kbps
Width : 1 280 pixels
Height : 720 pixels
Display aspect ratio : 16:9
Frame rate mode : Constant
Frame rate : 50.000 fps
Color space : YUV
Chroma subsampling : 4:2:0
Bit depth : 8 bits
Scan type : Progressive
Bits/(Pixel*Frame) : 0.079
Stream size : 2.13 GiB (89%)
Writing library : x264 core 148 r2721 72d53ab
Encoding settings : cabac=1 / ref=5 / deblock=1:0:0 / analyse=0x3:0x113 / me=hex / subme=8 / psy=1 / psy_rd=1.00:0.00 / mixed_ref=1 / me_range=16 / chroma_me=1 / trellis=2 / 8x8dct=1 / cqm=0 / deadzone=21,11 / fast_pskip=1 / chroma_qp_offset=-2 / threads=12 / lookahead_threads=2 / sliced_threads=0 / nr=0 / decimate=1 / interlaced=0 / bluray_compat=0 / constrained_intra=0 / bframes=3 / b_pyramid=2 / b_adapt=1 / b_bias=0 / direct=3 / weightb=1 / open_gop=0 / weightp=2 / keyint=250 / keyint_min=25 / scenecut=40 / intra_refresh=0 / rc_lookahead=50 / rc=crf / mbtree=1 / crf=22.0 / qcomp=0.60 / qpmin=0 / qpmax=69 / qpstep=4 / ip_ratio=1.40 / aq=1:1.00
Language : English
Default : Yes
Forced : No
Matrix coefficients : BT.709

Audio
ID : 2
Format : AC-3
Format/Info : Audio Coding 3
Mode extension : CM (complete main)
Format settings, Endianness : Big
Codec ID : A_AC3
Duration : 1h 24mn
Bit rate mode : Constant
Bit rate : 384 Kbps
Channel(s) : 6 channels
Channel positions : Front: L C R, Side: L R, LFE
Sampling rate : 48.0 KHz
Bit depth : 16 bits
Compression mode : Lossy
Stream size : 231 MiB (9%)
Language : English
Default : Yes
Forced : No

   
Торрент: Зарегистрирован [16 окт 2016, 20:12] Скачать торрент
Скачать торрент
О MediaGet
[ Размер 12.7 КБ / Просмотров 56 ]

Статус:
 
Приватный: Нет (DHT включён)
Размер: 2.4 ГБ (2 576 761 333 байт)
   
Аватара пользователя

Сид-сен-сей
Сид-сен-сей
 
Раздал: 24.31 ТБ
Скачал: 1.72 ТБ
Ратио: 20.885
Сообщения: 7898
Фото: 125
Зарегистрирован: 26 ноя 2012, 17:20
Medals: 2
1000 раздач! (1) Меценат №2 (1)

  • Похожие торренты
    Ответы
    Просмотры
    Последнее сообщение

Вернуться в Спорт и активный отдых

Кто сейчас на конференции

Зарегистрированные пользователи: 132231, Flayer, sergeyk

Ресурс не предоставляет электронные версии произведений, а занимается лишь коллекционированием и каталогизацией ссылок, присылаемых и публикуемых на форуме нашими читателями. Если вы являетесь правообладателем какого-либо представленного материала и не желаете чтобы ссылка на него находилась в нашем каталоге, свяжитесь с нами и мы незамедлительно удалим её. Файлы для обмена на трекере предоставлены пользователями сайта, и администрация не несёт ответственности за их содержание. Просьба не заливать файлы, защищенные авторскими правами, а также файлы нелегального содержания!
cron