BBC: Свет и тьма (1-2 серии из 2) / BBC: Light and Dark (Стефан Кутер / Stephen Cooter) [2013, Документальный, семейный, исследования, SATRip] скачать торрент

Документальное кино, документальный фильм, научные фильмы

Модератор: Модераторы видео

  • Статистика раздачи
Размер: 1.53 ГБ   |  Зарегистрирован: 01 июл 2015, 21:08   |   .torrent скачан: 16 раз
Сидеров: 5  [ 0 байт/сек ]     Личеров: 0  [ 0 байт/сек ]  
Список файлов : Кто скачал : Раздают : Скачивают : Кто благодарил : История : Не раздающие : Запрашивали сидеров : Внешние трекеры 
  

BBC: Свет и тьма (1-2 серии из 2) / BBC: Light and Dark (Стефан Кутер / Stephen Cooter) [2013, Документальный, семейный, исследования, SATRip]

Сообщение Фаромир брат » 01 июл 2015, 21:08

BBC: Свет и тьма / BBC: Light and Dark

Дата/Год выпуска: 2013
Страна: Великобритания, BBC
Жанр: Документальный
Продолжительность: 00:51:53
Перевод: Одноголосый закадровый
Русские субтитры: нет

Оригинальная аудиодорожка: нет
Режиссер: Стефан Кутер / Stephen Cooter
Ведущий: Профессор Жим Ал-Халили / Professor Jim Al-Khalili

Описание: Свет - основа жизни на нашей планете. Отвечая на вопросы "Почему небо голубое?" и "Почему трава зеленая?" можно давать однозначный ответ - "Благодаря свету". Эта неотъемлемая часть нашей жизни, но мы все еще стараемся понять феномен света...

Семпл:http://sendfile.su/1061393

качество: SATRip
формат: AVI
Видео: Xvid 720x400 25fps 1 859 Kbps
Аудио: AC3 48000Hz stereo 192kbps
01. Light / Свет
02. Dark / Тьма
Код: Выделить всё
K:\Документальные фильмы\BBC. Свет и тьма. 2013.XviD.SATRip\BBC. Свет и тьма.(s.01.e01). Свет.2013.XviD.SATRip.avi
   General
      Complete name : K:\Документальные фильмы\BBC. Свет и тьма. 2013.XviD.SATRip\BBC. Свет и тьма.(s.01.e01). Свет.2013.XviD.SATRip.avi
      Format : AVI
      Format/Info : Audio Video Interleave
      File size : 765 MiB
      Duration : 51mn 53s
      Overall bit rate : 2 061 Kbps
      Movie name : Light & Dark (s.01.e.01). Light
      Director : SATRip by Thunder
      Writing application : VirtualDubMod 1.5.10.3 | www.virtualdub-fr.org || (build 2550/release)
      Original source form/Name : Documentary
   Video #0
      ID : 0
      Format : MPEG-4 Visual
      Format profile : Advanced [email protected]
      Format settings, BVOP : Yes
      Format settings, QPel : No
      Format settings, GMC : No warppoints
      Format settings, Matrix : Default (H.263)
      Codec ID : XVID
      Codec ID/Hint : XviD
      Duration : 51mn 53s
      Bit rate : 1 859 Kbps
      Width : 720 pixels
      Height : 400 pixels
      Display aspect ratio : 16:9
      Frame rate : 25.000 fps
      Color space : YUV
      Chroma subsampling : 4:2:0
      Bit depth : 8 bits
      Scan type : Progressive
      Bits/(Pixel*Frame) : 0.258
      Stream size : 690 MiB (90%)
      Writing library : XviD 1.2.1 (UTC 2008-12-04)
   Audio #1
      ID : 1
      Format : AC-3
      Format/Info : Audio Coding 3
      Mode extension : CM (complete main)
      Codec ID : 2000
      Duration : 51mn 53s
      Bit rate mode : Constant
      Bit rate : 192 Kbps
      Channel(s) : 2 channels
      Channel positions : Front: L R
      Sampling rate : 48.0 KHz
      Bit depth : 16 bits
      Stream size : 71.3 MiB (9%)
      Alignment : Split accross interleaves
      Interleave, duration : 40 ms (1.00 video frame)
      Interleave, preload duration : 500 ms

   
Торрент: Зарегистрирован [01 июл 2015, 21:08] Скачать торрент
Скачать торрент
О MediaGet
[ Размер 31.43 КБ / Просмотров 130 ]

Статус:
 
Приватный: Нет (DHT включён)
Размер: 1.53 ГБ (1 642 588 160 байт)
   
Аватара пользователя

Сид-сен-сей
Сид-сен-сей
 
Раздал: 24.31 ТБ
Скачал: 1.72 ТБ
Ратио: 20.885
Сообщения: 7897
Фото: 125
Зарегистрирован: 26 ноя 2012, 17:20
Medals: 2
1000 раздач! (1) Меценат №2 (1)

  • Похожие торренты
    Ответы
    Просмотры
    Последнее сообщение

Вернуться в Зарубежное документальное кино

Кто сейчас на конференции

Зарегистрированные пользователи: AlexMTS

Ресурс не предоставляет электронные версии произведений, а занимается лишь коллекционированием и каталогизацией ссылок, присылаемых и публикуемых на форуме нашими читателями. Если вы являетесь правообладателем какого-либо представленного материала и не желаете чтобы ссылка на него находилась в нашем каталоге, свяжитесь с нами и мы незамедлительно удалим её. Файлы для обмена на трекере предоставлены пользователями сайта, и администрация не несёт ответственности за их содержание. Просьба не заливать файлы, защищенные авторскими правами, а также файлы нелегального содержания!
cron