Живые пейзажи: Бали / Living Landscapes: Bali (2006) BDRip 720p скачать торрент

Документальное кино, документальный фильм, научные фильмы

Модератор: Модераторы видео

  • Статистика раздачи
Размер: 2.34 ГБ   |  Зарегистрирован: 30 апр 2015, 17:49   |   .torrent скачан: 499 раз
Сидеров: 92  [ 0 байт/сек ]     Личеров: 14  [ 0 байт/сек ]  
Список файлов : Кто скачал : Раздают : Скачивают : Кто благодарил : История : Не раздающие : Запрашивали сидеров : Внешние трекеры 
  

Живые пейзажи: Бали / Living Landscapes: Bali (2006) BDRip 720p

Сообщение Фаромир брат » 30 апр 2015, 17:49

Название: Живые пейзажи: Бали
Оригинальное название: Living Landscapes: Bali
Год выпуска: 2006
Страна: США
Жанр: Документальный
Продолжительность: 00:48:06
Перевод: не требуется

Режиссёр: Майкл Хьюман

Описание: Танцы. Перенесите экзотические виды и звуки райского острова Бали в ваше окружение с помощью звуков природы и красивой балийской музыки. Водяные храмы. Почувствуйте волшебство водяных храмов острова Бали; эти священные источники снабжают 10000 галлонами воды в минуту с помощью древних водоёмов, украшенных затейливыми фонтанами, резными орнаментами и статуями. Мир живой природы. Понаблюдайте за стрекозами, птицами, бабочками и лягушками среди красивых тропических цветов. Крупный план высокой чёткости открывает мир живой природы острова Бали и замысловатую красоту самой прекрасной живой сокровищницы природы. Священные места. Посетите храм матери Безаки. Впитайте в себя спокойствие храма Тана Лот, посвящённого океану. Примите участие в священных таинствах, которые делают остров Бали одним из самых живописных мест на Земле.

Качество: BDRip 720p Сравнение с исходником
Формат: MKV
Видео: MPEG-4 AVC, 3729 Kбит/с, 1024x576, 29,970 кадра/с
Аудио: музыка, AC3, 448 kbps, 6 ch, 48 kHz

frame I:304 Avg QP:17.40 size:163016
frame P:15480 Avg QP:18.54 size: 57451
frame B:70725 Avg QP:20.82 size: 19960
Общее
Уникальный идентификатор : 218658463555298701800281725824440886191 (0xA4801697E957DB918000FB08E07A63AF)
Полное имя : D:VideoЖивые пейзажи.Бали.2006.BDRip.720p.mkv
Формат : Matroska
Версия формата : Version 4 / Version 2
Размер файла : 2,34 Гбайт
Продолжительность : 48 м.
Общий поток : 6965 Кбит/сек
Название фильма : BDRip -- STarankov
Дата кодирования : UTC 2015-04-30 11:35:34
Программа кодирования : mkvmerge v7.8.0 ('River Man') 64bit built on Mar 27 2015 16:31:37
Библиотека кодирования : libebml v1.3.1 + libmatroska v1.4.2
_STATISTICS_WRITING_APP : mkvmerge v7.8.0 ('River Man') 64bit built on Mar 27 2015 16:31:37
_STATISTICS_WRITING_DATE_UTC : 2015-04-30 11:35:34
_STATISTICS_TAGS : BPS DURATION NUMBER_OF_FRAMES NUMBER_OF_BYTES
DURATION : 00:48:06.528000000
NUMBER_OF_FRAMES : 90204
NUMBER_OF_BYTES : 161645568

Видео
Идентификатор : 1
Формат : AVC
Формат/Информация : Advanced Video Codec
Профиль формата : [email protected]
Параметр CABAC формата : Да
Параметр ReFrames формата : 9 кадров
Идентификатор кодека : V_MPEG4/ISO/AVC
Продолжительность : 48 м.
Битрейт : 6378 Кбит/сек
Ширина : 1280 пикселей
Высота : 720 пикселей
Соотношение сторон : 16:9
Режим частоты кадров : Постоянный
Частота кадров : 29,970 кадров/сек
Цветовое пространство : YUV
Субдискретизация насыщенности : 4:2:0
Битовая глубина : 8 бит
Тип развёртки : Прогрессивная
Бит/(Пиксели*Кадры) : 0.231
Размер потока : 2,14 Гбайт (92%)
Библиотека кодирования : x264 core 146 r2538 121396c
Настройки программы : cabac=1 / ref=9 / deblock=1:-1:-1 / analyse=0x3:0x113 / me=umh / subme=10 / psy=1 / psy_rd=1.00:0.15 / mixed_ref=1 / me_range=32 / chroma_me=1 / trellis=2 / 8x8dct=1 / cqm=0 / deadzone=21,11 / fast_pskip=1 / chroma_qp_offset=-3 / threads=6 / lookahead_threads=1 / sliced_threads=0 / nr=0 / decimate=1 / interlaced=0 / bluray_compat=0 / constrained_intra=0 / bframes=8 / b_pyramid=2 / b_adapt=2 / b_bias=0 / direct=1 / weightb=1 / open_gop=0 / weightp=2 / keyint=288 / keyint_min=28 / scenecut=40 / intra_refresh=0 / rc_lookahead=40 / rc=crf / mbtree=0 / crf=17.0 / qcomp=0.60 / qpmin=0 / qpmax=69 / qpstep=4 / vbv_maxrate=40000 / vbv_bufsize=50000 / crf_max=0.0 / nal_hrd=none / filler=0 / ip_ratio=1.40 / pb_ratio=1.30 / aq=1:1.00
Язык : English
Default : Да
Forced : Нет
DURATION : 00:48:06.517000000
NUMBER_OF_FRAMES : 86509
NUMBER_OF_BYTES : 2350560434
_STATISTICS_WRITING_APP : mkvmerge v7.8.0 ('River Man') 64bit built on Mar 27 2015 16:31:37
_STATISTICS_WRITING_DATE_UTC : 2015-04-30 11:35:34
_STATISTICS_TAGS : BPS DURATION NUMBER_OF_FRAMES NUMBER_OF_BYTES

Аудио
Идентификатор : 2
Формат : AC-3
Формат/Информация : Audio Coding 3
Расширение режима : CM (complete main)
Параметр Endianness формата : Big
Идентификатор кодека : A_AC3
Продолжительность : 48 м.
Вид битрейта : Постоянный
Битрейт : 448 Кбит/сек
Каналы : 6 каналов
Расположение каналов : Front: L C R, Side: L R, LFE
Частота : 48,0 КГц
Битовая глубина : 16 бит
Метод сжатия : С потерями
Размер потока : 154 Мбайт (6%)
Заголовок : Music
Default : Да
Forced : Нет


   
Торрент: Зарегистрирован [30 апр 2015, 17:49] Скачать торрент
Скачать торрент
О MediaGet
[ Размер 12.21 КБ / Просмотров 77 ]

Статус:
 
Приватный: Нет (DHT включён)
Размер: 2.34 ГБ (2 512 995 757 байт)
   
Аватара пользователя

Сид-сен-сей
Сид-сен-сей
 
Раздал: 24.31 ТБ
Скачал: 1.72 ТБ
Ратио: 20.885
Сообщения: 7897
Фото: 125
Зарегистрирован: 26 ноя 2012, 17:20
Medals: 2
1000 раздач! (1) Меценат №2 (1)

Re: Живые пейзажи: Бали / Living Landscapes: Bali (2006) BDRip 720p

Сообщение Dryu » 03 май 2015, 11:40

спасибо
Аватара пользователя
Пир-флудер
Пир-флудер
 
Раздал: 3.64 ТБ
Скачал: 1.32 ТБ
Ратио: 2.797
Сообщения: 624
Зарегистрирован: 03 июл 2009, 15:38
Откуда: Анапа-Сити
  • Личное сообщение
  • ICQ


Вернуться в Зарубежное документальное кино

Кто сейчас на конференции

Зарегистрированные пользователи: нет зарегистрированных пользователей

Ресурс не предоставляет электронные версии произведений, а занимается лишь коллекционированием и каталогизацией ссылок, присылаемых и публикуемых на форуме нашими читателями. Если вы являетесь правообладателем какого-либо представленного материала и не желаете чтобы ссылка на него находилась в нашем каталоге, свяжитесь с нами и мы незамедлительно удалим её. Файлы для обмена на трекере предоставлены пользователями сайта, и администрация не несёт ответственности за их содержание. Просьба не заливать файлы, защищенные авторскими правами, а также файлы нелегального содержания!
cron