Русская рулетка / Russian Roulette [1998, Документальный, VHSRip]

телепередачи, Шоу, ТВ Шоу, Скачать без регистрации

Модератор: Модераторы видео

  • Статистика раздачи
Размер: 155.82 МБ   |  Зарегистрирован: 04 янв 2014, 11:48   |   .torrent скачан: 0 раз
Сидеров: 0  [ 0 байт/сек ]     Личеров: 0  [ 0 байт/сек ]  
Список файлов : Кто скачал : Раздают : Скачивают : Кто благодарил : История : Не раздающие : Запрашивали сидеров : Внешние трекеры 
  

Русская рулетка / Russian Roulette [1998, Документальный, VHSRip]

Сообщение pitius76m » 04 янв 2014, 11:48

Название: Русская рулетка
Оригинальное название: Russian Roulette
Год выпуска: 1998
Страна: США
Жанр: Документальный
Продолжительность: 00:46:27
Перевод : Профессиональный (двухголосый закадровый)
Русские субтитры: нет

Телеканал: Discovery Channel

Описание : Во второй половине 1990-х годов произошло ЧП, из-за которого мир встал перед угрозой ядерной войны. 25 января 1995 года, когда норвежские ученые при поддержке американцев произвели запуск метеорологической ракеты, российскими военными она была принята за американскую ракету «Трайдент» Д-5. На следующий день президент РФ Б. Н. Ельцин заявил, что он впервые задействовал свой «ядерный чемоданчик» для экстренной связи со своими военными советниками и обсуждения ситуации. Этот случай наглядно показал, что ядерная угроза реальна как никогда. Однако опасность представляет не только невнимательность офицеров-ракетчиков. Моральное и физическое устаревание вооружения стратегических ядерных сил, падение морального духа военнослужащих, которым доверена "красная кнопка", кража радиоактивных материалов и их попадание в руки террористов: все это дает основания полагать, что с окончанием холодной войны опасность ядерной войны не миновала.

Качество: VHSRip
Формат: AVI
Видео: Video: 640x480 (1.33:1), 10 fps, XviD build 50 ~330 kbps avg, 0.11 bit/pixel
Аудио: Audio: 44.100 kHz, MPEG Layer 3, 2 ch, ~128.00 kbps avg

Общее
Полное имя : C:\Раздачи\Русская рулетка.avi
Формат : AVI
Формат/Информация : Audio Video Interleave
Размер файла : 156 Мбайт
Продолжительность : 46 м.
Общий поток : 469 Кбит/сек
Программа кодирования : MEncoder SVN-r33883(20110719-gcc4.5.2)
Библиотека кодирования : MPlayer

Видео
Идентификатор : 0
Формат : MPEG-4 Visual
Профиль формата : Advanced Simple@L5
Параметр BVOP формата : 2
Параметр QPel формата : Нет
Параметр GMC формата : Без точки перехода
Параметр матрицы формата : Default (H.263)
Идентификатор кодека : XVID
Идентификатор кодека/Подсказка : XviD
Продолжительность : 46 м.
Битрейт : 332 Кбит/сек
Ширина : 640 пикселей
Высота : 480 пикселей
Соотношение сторон : 4:3
Частота кадров : 10,000 кадров/сек
Цветовое пространство : YUV
Субдискретизация насыщенности : 4:2:0
Битовая глубина : 8 бит
Тип развёртки : Прогрессивная
Метод сжатия : С потерями
Бит/(Пиксели*Кадры) : 0.108
Размер потока : 110 Мбайт (71%)
Библиотека кодирования : XviD 1.2.1 (UTC 2008-12-04)

Аудио
Идентификатор : 1
Формат : MPEG Audio
Версия формата : Version 1
Профиль формата : Layer 3
Режим : Joint stereo
Расширение режима : MS Stereo
Идентификатор кодека : 55
Идентификатор кодека/Подсказка : MP3
Продолжительность : 46 м.
Вид битрейта : Постоянный
Битрейт : 128 Кбит/сек
Каналы : 2 канала
Частота : 44,1 КГц
Метод сжатия : С потерями
Задержка видео : 100 мс.
Размер потока : 42,5 Мбайт (27%)
Выравнивание : Соединение по промежуткам
Продолжительность промежутка : 26 мс. (0,26 видеокадр)
Время предзагрузки промежутка : 522 мс.
Библиотека кодирования : LAME3.98.4
   
Торрент: Зарегистрирован [04 янв 2014, 11:48] Скачать торрент
Скачать торрент
О MediaGet
[ Размер 12.67 КБ / Просмотров 43 ]

Статус:
 
Приватный: Нет (DHT включён)
Размер: 155.82 МБ (163 389 120 байт)
   
Аватара пользователя
Модератор видео
Модератор видео
 
Раздал: 9.44 ТБ
Скачал: 1 ТБ
Ратио: 9.498
Сообщения: 467
Зарегистрирован: 24 янв 2011, 10:36
Откуда: Продажа компьютерных игр STWAM
  • Личное сообщение
  • Сайт

Вернуться в Зарубежные телепередачи

Кто сейчас на конференции

Зарегистрированные пользователи: styk

Ресурс не предоставляет электронные версии произведений, а занимается лишь коллекционированием и каталогизацией ссылок, присылаемых и публикуемых на форуме нашими читателями. Если вы являетесь правообладателем какого-либо представленного материала и не желаете чтобы ссылка на него находилась в нашем каталоге, свяжитесь с нами и мы незамедлительно удалим её. Файлы для обмена на трекере предоставлены пользователями сайта, и администрация не несёт ответственности за их содержание. Просьба не заливать файлы, защищенные авторскими правами, а также файлы нелегального содержания!
cron