Шёпот / The Whispers / Сезон: 1 / Серии: 5 из 14 (Чарльз Бисон, П.Дж. Пеше, Холли Дэйл) [2015, фантастика, триллер, драма, WEB-DLRip] MVO (LostFilm) + Original скачать торрент

Зарубежные сериалы, иностранные сериалы, с хорошим переводом, все серии, новые серии, все сезоны

Модератор: Модераторы видео

  • Статистика раздачи
Размер: 2.68 ГБ   |  Зарегистрирован: 07 июл 2015, 22:40   |   .torrent скачан: 11 раз
Сидеров: 0  [ 0 байт/сек ]     Личеров: 0  [ 0 байт/сек ]  
Список файлов : Кто скачал : Раздают : Скачивают : Кто благодарил : История : Не раздающие : Запрашивали сидеров : Внешние трекеры 
  

Шёпот / The Whispers / Сезон: 1 / Серии: 5 из 14 (Чарльз Бисон, П.Дж. Пеше, Холли Дэйл) [2015, фантастика, триллер, драма, WEB-DLRip] MVO (LostFilm) + Original

Сообщение Фаромир брат » 30 июн 2015, 21:18

Шёпот/
The Whispers
Год выпуска: 2015
Страна: США
Жанр: фантастика, триллер, драма
Продолжительность: ~ 00:42:00
Перевод: Профессиональный (многоголосый закадровый) LostFilm
Режиссёр: Чарльз Бисон, П.Дж. Пеше, Холли Дэйл
В ролях: Тейт Бёрчмор, Бэрри Слоун, Лили Рэйб, Кайли Роджерс, Кайл Харрисон Брейткопф, Дэвид Эндрюс, Эбби Райдер Фортсон, Джеймисон Джонс, Майло Вентимилья и др
Описание: Инопланетные силы проникают в правительство США и вызывают хаос, при этом остаются незамеченными. Правительственным агентам удается выяснить, что пришельцы используют для воплощения своих целей самое дорогое, что у нас есть — детей…
Доп. информация: Видео без рекламной вставки и логотипа «LostFilm»


Качество: WEB-DLRip
Формат: AVI
Видео: XviD, 720x400 (16:9), 23,976 fps, 1550 kbps
Аудио Rus: MP3, 48 kHz, 2 ch, 128 kbps
Аудио Eng: MP3, 48 kHz, 2 ch, 128 kbps
Субтитры: отсутствуют
01. Видишь, крестик нарисован (X Marks the Spot)
02. Прятки (Hide & Seek)
03. Столкновение (Collision)
04. Катастрофа (Meltdown)
Код:
Код: Выделить всё
Формат                                   : AVI
Формат/Информация                        : Audio Video Interleave
Размер файла                             : 547 Мбайт
Продолжительность                        : 42 м.
Общий поток                              : 1820 Кбит/сек
Программа кодирования                    : VirtualDubMod 1.5.10.3 (build 2550/release)
Библиотека кодирования                   : VirtualDubMod build 2550/release

Видео
Идентификатор                            : 0
Формат                                   : MPEG-4 Visual
Профиль формата                          : Advanced [email protected]
Параметр BVOP формата                    : 2
Параметр QPel формата                    : Нет
Параметр GMC формата                     : Без точки перехода
Параметр матрицы формата                 : Default (MPEG)
Идентификатор кодека                     : XVID
Идентификатор кодека/Подсказка           : XviD
Продолжительность                        : 42 м.
Битрейт                                  : 1550 Кбит/сек
Ширина                                   : 720 пикселей
Высота                                   : 400 пикселей
Соотношение сторон                       : 16:9
Частота кадров                           : 23,976 кадра/сек
Цветовое пространство                    : YUV
Субдискретизация насыщенности            : 4:2:0
Битовая глубина                          : 8 бит
Тип развёртки                            : Прогрессивная
Метод сжатия                             : С потерями
Бит/(Пиксели*Кадры)                      : 0.225
Размер потока                            : 466 Мбайт (85%)
Библиотека кодирования                   : XviD 64

Аудио #1
Идентификатор                            : 1
Формат                                   : MPEG Audio
Версия формата                           : Version 1
Профиль формата                          : Layer 3
Режим                                    : Joint stereo
Расширение режима                        : MS Stereo
Идентификатор кодека                     : 55
Идентификатор кодека/Подсказка           : MP3
Продолжительность                        : 42 м.
Вид битрейта                             : Постоянный
Битрейт                                  : 128 Кбит/сек
Каналы                                   : 2 канала
Частота                                  : 48,0 КГц
Метод сжатия                             : С потерями
Размер потока                            : 38,5 Мбайт (7%)
Выравнивание                             : Соединение по промежуткам
Продолжительность промежутка             : 42  мс. (1,00 видеокадр)
Время предзагрузки промежутка            : 504  мс.

Аудио #2
Идентификатор                            : 2
Формат                                   : MPEG Audio
Версия формата                           : Version 1
Профиль формата                          : Layer 3
Режим                                    : Joint stereo
Расширение режима                        : MS Stereo
Идентификатор кодека                     : 55
Идентификатор кодека/Подсказка           : MP3
Продолжительность                        : 42 м.
Вид битрейта                             : Постоянный
Битрейт                                  : 128 Кбит/сек
Каналы                                   : 2 канала
Частота                                  : 48,0 КГц
Метод сжатия                             : С потерями
Размер потока                            : 38,5 Мбайт (7%)
Выравнивание                             : Соединение по промежуткам
Продолжительность промежутка             : 42  мс. (1,00 видеокадр)
Время предзагрузки промежутка            : 504  мс.

Внимание! Раздача ведётся путём добавления новых серий; при каждом добавлении создаётся новый торрент. Чтобы начать докачку новой серии, пользователям необходимо сделать следующее:
(1) остановить скачивание,
(2) удалить старый торрент у себя из клиента (старые серии удалять не надо),
(3) скачать новый торрент и запустить его у себя в клиенте вместо старого, при этом указать клиенту путь в старую папку куда и должно происходить скачивание новых серий.

Ваш клиент при этом должен произвести хеширование (проверку) старой папки (если не производит сам - помогите ему сделать это), и будет докачивать только те серии которых у вас ещё нет. Старые серии при этом не удаляются, а продолжают раздаваться!

Eсли вы уже удалили старые серии, то предотвратить повторную закачку старых серий можно, отжав галочку в соответствующих местах при запуске нового торрента. По возможности, желательно не удалять старые серии как можно дольше чтобы релизёр не столько продолжал раздавать старые серии, а смог сконцентрироваться на новых.
   
Торрент: Зарегистрирован [07 июл 2015, 22:40] Скачать торрент
Скачать торрент
О MediaGet
[ Размер 14.26 КБ / Просмотров 349 ]

Статус:
 
Приватный: Нет (DHT включён)
Размер: 2.68 ГБ (2 877 652 992 байт)
   
Аватара пользователя

Сид-сен-сей
Сид-сен-сей
 
Раздал: 24.31 ТБ
Скачал: 1.72 ТБ
Ратио: 20.885
Сообщения: 7907
Фото: 126
Зарегистрирован: 26 ноя 2012, 17:20
Medals: 2
1000 раздач! (1) Меценат №2 (1)

Re: Шёпот / The Whispers / Сезон: 1 / Серии: 5 из 14 (Чарльз Бисон, П.Дж. Пеше, Холли Дэйл) [2015, фантастика, триллер, драма, WEB-DLRip] MVO (LostFilm) + Original

Сообщение Фаромир брат » 07 июл 2015, 22:40

5 серия
Аватара пользователя

Сид-сен-сей
Сид-сен-сей
 
Раздал: 24.31 ТБ
Скачал: 1.72 ТБ
Ратио: 20.885
Сообщения: 7907
Фото: 126
Зарегистрирован: 26 ноя 2012, 17:20
Medals: 2
1000 раздач! (1) Меценат №2 (1)


Вернуться в Зарубежные сериалы Rip's

Кто сейчас на конференции

Зарегистрированные пользователи: нет зарегистрированных пользователей

Ресурс не предоставляет электронные версии произведений, а занимается лишь коллекционированием и каталогизацией ссылок, присылаемых и публикуемых на форуме нашими читателями. Если вы являетесь правообладателем какого-либо представленного материала и не желаете чтобы ссылка на него находилась в нашем каталоге, свяжитесь с нами и мы незамедлительно удалим её. Файлы для обмена на трекере предоставлены пользователями сайта, и администрация не несёт ответственности за их содержание. Просьба не заливать файлы, защищенные авторскими правами, а также файлы нелегального содержания!
cron