Холод. Цивилизации (2016) SATRip скачать торрент

Документальное кино, документальный фильм, научные фильмы

Модератор: Модераторы видео

  • Статистика раздачи
Размер: 307.11 МБ   |  Зарегистрирован: 02 фев 2016, 20:03   |   .torrent скачан: 3 раз
Сидеров: 7  [ 0 байт/сек ]     Личеров: 10  [ 0 байт/сек ]  
Список файлов : Кто скачал : Раздают : Скачивают : Кто благодарил : История : Не раздающие : Запрашивали сидеров : Внешние трекеры 
  

Холод. Цивилизации (2016) SATRip

Сообщение Админ » 02 фев 2016, 20:03

Холод. Цивилизации (2016) SATRip

Телекомпания: Культура
Жанр: Телепередача, Документальный

Описание:
Холод. Мы сталкиваемся с ним каждый день. Но так и не знаем, с кем же на самом деле имеем дело. Два года съемок по всему миру - в России, Норвегии, Великобритании, США, и, конечно, на самом холодном материке планеты. Как он выглядел раньше? Правда ли, что льды Антарктиды медленно тают? Ответы на эти вопросы авторы фильма искали в экспедициях и в исследовательских лабораториях, где провели сложные эксперименты.

В этом выпуске: Цивилизации
На протяжении веков холод творил историю и продолжает делать это до сих пор. Ученые выяснили, что все цивилизации, государства и великие империи появлялись только во времена малых ледниковых периодов. Мы отправимся в главный заповедник холода на нашей планете - Антарктиду. 50 миллионов лет назад там росли тропические леса, а сегодня ученые исследуют ледяные керны с этого континента, которые могут точно рассказать о климате планеты в разные периоды времени.
Все великие переселения народов на нашей планете происходили из-за холода. Например, в Аргентине до сих пор живут самые дальние родственники наших северных народов, пришедших туда из Сибири. Только за прошедшие 4 тысячи лет ученые по определенным "следам" насчитывают 15 подобных массовых миграций.

Продолжительность: 00:39:32
Качество видео: SATRip

Видео: Xvid, 704х412, ~1000 kb/s
Аудио: MP3, 2 ch, 128 kb/s
Код:
Код: Выделить всё
Format                      : AVI
Format/Info                 : Audio Video Interleave
File size                   : 307 MiB
Duration                    : 39mn 32s
Overall bit rate            : 1 086 Kbps
Writing application         : MEncoder SVN-r33883(20110719-gcc4.5.2)
Writing library             : MPlayer

Video
ID                          : 0
Format                      : MPEG-4 Visual
Format profile              : Advanced [email protected]
Format settings, BVOP       : 2
Format settings, QPel       : No
Format settings, GMC        : No warppoints
Format settings, Matrix     : Default (H.263)
Codec ID                    : XVID
Codec ID/Hint               : XviD
Duration                    : 39mn 32s
Bit rate                    : 946 Kbps
Width                       : 704 pixels
Height                      : 412 pixels
Display aspect ratio        : 1.709
Frame rate                  : 25.000 fps
Color space                 : YUV
Chroma subsampling          : 4:2:0
Bit depth                   : 8 bits
Scan type                   : Progressive
Compression mode            : Lossy
Bits/(Pixel*Frame)          : 0.130
Stream size                 : 267 MiB (87%)
Writing library             : XviD 1.2.1 (UTC 2008-12-04)

Audio
ID                          : 1
Format                      : MPEG Audio
Format version              : Version 1
Format profile              : Layer 3
Mode                        : Joint stereo
Mode extension              : MS Stereo
Codec ID                    : 55
Codec ID/Hint               : MP3
Duration                    : 39mn 32s
Bit rate mode               : Constant
Bit rate                    : 128 Kbps
Channel(s)                  : 2 channels
Sampling rate               : 44.1 KHz
Compression mode            : Lossy
Delay relative to video     : 40ms
Stream size                 : 36.2 MiB (12%)
Alignment                   : Aligned on interleaves
Interleave, duration        : 26 ms (0.65 video frame)
Interleave, preload duratio : 522 ms
Writing library             : LAME3.98.4

Скриншоты:


   
Торрент: Зарегистрирован [02 фев 2016, 20:03] Скачать торрент
Скачать торрент
О MediaGet
[ Размер 12.8 КБ / Просмотров 154 ]

Статус:
 
Приватный: Нет (DHT включён)
Размер: 307.11 МБ (322 032 514 байт)
   
Аватара пользователя

Администратор
Администратор
 
Раздал: 2.33 ПБ
Скачал: 1.02 ПБ
Ратио: 2.281
Сообщения: 3721
Зарегистрирован: 07 май 2010, 17:29
Medals: 1
Лучший релиз за месяц (1)
  • Личное сообщение
  • ICQ

  • Похожие торренты
    Ответы
    Просмотры
    Последнее сообщение

Вернуться в Отечественное документальное кино

Кто сейчас на конференции

Зарегистрированные пользователи: AlexMTS

Ресурс не предоставляет электронные версии произведений, а занимается лишь коллекционированием и каталогизацией ссылок, присылаемых и публикуемых на форуме нашими читателями. Если вы являетесь правообладателем какого-либо представленного материала и не желаете чтобы ссылка на него находилась в нашем каталоге, свяжитесь с нами и мы незамедлительно удалим её. Файлы для обмена на трекере предоставлены пользователями сайта, и администрация не несёт ответственности за их содержание. Просьба не заливать файлы, защищенные авторскими правами, а также файлы нелегального содержания!
cron