Юрий Гагарин. Семь лет одиночества (Алексей Китайцев) [2014, Документальный, история, биография, HDTVRip] скачать торрент

Документальное кино, документальный фильм, научные фильмы

Модератор: Модераторы видео

  • Статистика раздачи
Размер: 573.17 МБ   |  Зарегистрирован: 07 апр 2015, 20:44   |   .torrent скачан: 0 раз
Сидеров: 0  [ 0 байт/сек ]     Личеров: 0  [ 0 байт/сек ]  
Список файлов : Кто скачал : Раздают : Скачивают : Кто благодарил : История : Не раздающие : Запрашивали сидеров : Внешние трекеры 
  

Юрий Гагарин. Семь лет одиночества (Алексей Китайцев) [2014, Документальный, история, биография, HDTVRip]

Сообщение Фаромир брат » 07 апр 2015, 20:44

Юрий Гагарин. Семь лет одиночества

Год выпуска: 2014
Страна: Россия
Жанр: Документальный, история, биография
Продолжительность: 00:44:29
Перевод: Не требуется
Режиссер: Алексей Китайцев

Описание: "Когда-то еще в детстве прочитал слова В.П. Чкалова: "Если быть, то быть первым". Вот я и стараюсь им быть и буду до конца. Хочу, Валечка, посвятить этот полет людям нового общества…". Это письмо Юрий Гагарин написал 10 апреля 1961 года. Менее чем за сутки до своего полета. Уже 14 апреля Гагарина спецбортом привезли в Москву. С тех пор красные дорожки, камеры, здравицы, официальные приемы пошли нескончаемой круговертью. "Сына Земли" хотят видеть в мире, ему вешают ордена на грудь, наперебой называют героем. Гагарин стал, вернее, его заставили стать фетишем страны. А заодно - запретили летать… Это Гагарину-то! Человеку, который с детства стремился в небо. И ставил перед собой еще более дерзкую задачу: ступить первым на Луну. В этом фильме – несколько интересных историй из жизни Юрия Гагарина. Друзья и очевидцы этих событий размышляют о том, чем жил первый космонавт планеты ПОСЛЕ той самой минуты, которой он посвятил всю свою жизнь…

Качество: HDTVRip
Формат: AVI
Видео: XviD, 720x400, (1.8:1), 1600 kbps avg, 25 fps, 0.22 bit/pixel
Аудио: 48 kHz, Audio Coding 3, 2 ch, ~192.00 kbps avg

Код: Выделить всё
General
Complete name                            : C:\Users\Acer\Desktop\Юрий Гагарин. Семь лет одиночества.avi
Format                                   : AVI
Format/Info                              : Audio Video Interleave
File size                                : 573 MiB
Duration                                 : 44mn 29s
Overall bit rate                         : 1 801 Kbps
Writing application                      : VirtualDubMod 1.5.10.3 | www.virtualdub-fr.org || (build 2550/release)
Writing library                          : VirtualDubMod build 2550/release

Video
ID                                       : 0
Format                                   : MPEG-4 Visual
Format profile                           : Advanced [email protected]
Format settings, BVOP                    : 2
Format settings, QPel                    : No
Format settings, GMC                     : No warppoints
Format settings, Matrix                  : Default (MPEG)
Codec ID                                 : XVID
Codec ID/Hint                            : XviD
Duration                                 : 44mn 29s
Bit rate                                 : 1 600 Kbps
Width                                    : 720 pixels
Height                                   : 400 pixels
Display aspect ratio                     : 16:9
Frame rate                               : 25.000 fps
Color space                              : YUV
Chroma subsampling                       : 4:2:0
Bit depth                                : 8 bits
Scan type                                : Progressive
Compression mode                         : Lossy
Bits/(Pixel*Frame)                       : 0.222
Stream size                              : 509 MiB (89%)
Writing library                          : XviD 1.2.1 (UTC 2008-12-04)

Audio
ID                                       : 1
Format                                   : AC-3
Format/Info                              : Audio Coding 3
Mode extension                           : CM (complete main)
Format settings, Endianness              : Big
Codec ID                                 : 2000
Duration                                 : 44mn 29s
Bit rate mode                            : Constant
Bit rate                                 : 192 Kbps
Channel(s)                               : 2 channels
Channel positions                        : Front: L R
Sampling rate                            : 48.0 KHz
Bit depth                                : 16 bits
Compression mode                         : Lossy
Stream size                              : 61.1 MiB (11%)
Alignment                                : Split accross interleaves
Interleave, duration                     : 40 ms (1.00 video frame)
Interleave, preload duration             : 500 ms

   
Торрент: Зарегистрирован [07 апр 2015, 20:44] Скачать торрент
Скачать торрент
О MediaGet
[ Размер 11.73 КБ / Просмотров 29 ]

Статус:
 
Приватный: Нет (DHT включён)
Размер: 573.17 МБ (601 012 224 байт)
   
Аватара пользователя

Сид-сен-сей
Сид-сен-сей
 
Раздал: 24.31 ТБ
Скачал: 1.72 ТБ
Ратио: 20.885
Сообщения: 7897
Фото: 125
Зарегистрирован: 26 ноя 2012, 17:20
Medals: 2
1000 раздач! (1) Меценат №2 (1)

Вернуться в Отечественное документальное кино

Кто сейчас на конференции

Зарегистрированные пользователи: AlexMTS

cron
Ресурс не предоставляет электронные версии произведений, а занимается лишь коллекционированием и каталогизацией ссылок, присылаемых и публикуемых на форуме нашими читателями. Если вы являетесь правообладателем какого-либо представленного материала и не желаете чтобы ссылка на него находилась в нашем каталоге, свяжитесь с нами и мы незамедлительно удалим её. Файлы для обмена на трекере предоставлены пользователями сайта, и администрация не несёт ответственности за их содержание. Просьба не заливать файлы, защищенные авторскими правами, а также файлы нелегального содержания!
cron