Lana Del Rey - Video Games (Live @ Saturday Night Live) January 14, 2012 [Pop, Alternative pop, HDTV 1080i] скачать торрент

Модератор: Модераторы музыки

  • Статистика раздачи
Размер: 486.45 МБ   |  Зарегистрирован: 01 мар 2014, 08:28   |   .torrent скачан: 1 раз
Сидеров: 1  [ 0 байт/сек ]     Личеров: 1  [ 0 байт/сек ]  
Список файлов : Кто скачал : Раздают : Скачивают : Кто благодарил : История : Не раздающие : Запрашивали сидеров : Внешние трекеры 
  

Lana Del Rey - Video Games (Live @ Saturday Night Live) January 14, 2012 [Pop, Alternative pop, HDTV 1080i]

Сообщение Тося » 01 мар 2014, 08:28

Lana Del Rey - Video Games (Live @ Saturday Night Live) January 14, 2012

Жанр: Pop, Alternative pop
Продолжительность: 04:37
Год выпуска: 2012

Качество: HDTV 1080i
Контейнер: TS
Видео: MPEG2 1920x1080 16:9 13.6 Mbps 29.970 fps
Аудио: AC3 384 kbps 6 channels 48.0 KHz

General
ID : 1 (0x1)
Complete name : D:\Lana Del Rey - Video Games (14.01.12 Saturday Night Live S37E12).ts
Format : MPEG-TS
File size : 486 MiB
Duration : 4mn 37s
Overall bit rate : 14.7 Mbps

Video
ID : 2176 (0x880)
Menu ID : 1 (0x1)
Format : MPEG Video
Format version : Version 2
Format profile : [email protected]
Format settings, BVOP : Yes
Format settings, Matrix : Default
Codec ID : 2
Duration : 4mn 37s
Bit rate mode : Variable
Bit rate : 13.6 Mbps
Nominal bit rate : 65.0 Mbps
Width : 1 920 pixels
Height : 1 080 pixels
Display aspect ratio : 16:9
ActiveFormatDescription : Full frame 16:9 image
Frame rate : 29.970 fps
Color space : YUV
Chroma subsampling : 4:2:0
Bit depth : 8 bits
Scan type : Interlaced
Scan order : Top Field First
Compression mode : Lossy
Bits/(Pixel*Frame) : 0.219
Stream size : 449 MiB (92%)

Audio
ID : 2177 (0x881)
Menu ID : 1 (0x1)
Format : AC-3
Format/Info : Audio Coding 3
Mode extension : CM (complete main)
Codec ID : 129
Duration : 4mn 37s
Bit rate mode : Constant
Bit rate : 384 Kbps
Channel(s) : 6 channels
Channel positions : Front: L C R, Side: L R, LFE
Sampling rate : 48.0 KHz
Bit depth : 16 bits
Compression mode : Lossy
Stream size : 12.7 MiB (3%)
Language : English

Text #1
ID : 2176 (0x880)608-1
Menu ID : 1 (0x1)
Format : EIA-608
Muxing mode : A/53 / DTVCC Transport
Muxing mode, more info : Muxed in Video #1
Duration : 4mn 37s
Stream size : 0.00 Byte (0%)

Text #2
ID : 2176 (0x880)1
Menu ID : 1 (0x1)
Format : EIA-708
Muxing mode : A/53 / DTVCC Transport
Muxing mode, more info : Muxed in Video #1
Duration : 4mn 37s
Stream size : 0.00 Byte (0%)
   
Торрент: Зарегистрирован [01 мар 2014, 08:28] Скачать торрент
Скачать торрент
О MediaGet
[ Размер 20.27 КБ / Просмотров 59 ]

Статус:
 
Приватный: Нет (DHT включён)
Размер: 486.45 МБ (510 084 796 байт)
   

Торренты, на самом деле, это не символ пиратства, а зародыш утопического социализма. Деньги там ничего не значат, а все люди равны: нет богатых, нет бедных. Есть только трекеры и раздачи.
честно скопипастила с просторов инета
Аватара пользователя
Пир-флудер
Пир-флудер
 
Раздал: 1.05 ТБ
Скачал: 244.51 ГБ
Ратио: 4.438
Сообщения: 661
Зарегистрирован: 22 июл 2010, 06:58
Откуда: Волшебная страна ОЗ
  • Личное сообщение
  • Сайт
ТегиLana Del Rey, Video Games, скачать

  • Похожие торренты
    Ответы
    Просмотры
    Последнее сообщение

Вернуться в Pop, Eurodance, Disco

Кто сейчас на конференции

Зарегистрированные пользователи: нет зарегистрированных пользователей

cron
Ресурс не предоставляет электронные версии произведений, а занимается лишь коллекционированием и каталогизацией ссылок, присылаемых и публикуемых на форуме нашими читателями. Если вы являетесь правообладателем какого-либо представленного материала и не желаете чтобы ссылка на него находилась в нашем каталоге, свяжитесь с нами и мы незамедлительно удалим её. Файлы для обмена на трекере предоставлены пользователями сайта, и администрация не несёт ответственности за их содержание. Просьба не заливать файлы, защищенные авторскими правами, а также файлы нелегального содержания!
cron