Григорий Лепс - Юбилейный концерт. Самый лучший день. [2013, Shanson, Pop, HDTV] скачать торрент

Модератор: Модераторы музыки

  • Статистика раздачи
Размер: 7.66 ГБ   |  Зарегистрирован: 26 мар 2013, 11:56   |   .torrent скачан: 11 раз
Сидеров: 1  [ 0 байт/сек ]     Личеров: 0  [ 0 байт/сек ]  
Список файлов : Кто скачал : Раздают : Скачивают : Кто благодарил : История : Не раздающие : Запрашивали сидеров : Внешние трекеры 
  

Григорий Лепс - Юбилейный концерт. Самый лучший день. [2013, Shanson, Pop, HDTV]

Сообщение Тося » 26 мар 2013, 11:56



Григорий Лепс
Юбилейный концерт. Самый лучший день.



Жанр: Shanson, Pop
Продолжительность: 01:24:25
Год выпуска: 2013

Описание: Его любят за мощный голос и редкую харизму. Он – кумир миллионов. Обладатель уникального по диапазону и колориту вокала. Его песни знает вся страна. Каждая новая его работа становится событием. Свои лучшие песни Григорий Лепс исполнит в присущей только ему манере, за которую его так любят поклонники. Его колоритный, проникающий в душу, голос не спутаешь ни с каким другим. Его концерты - это шоу с масштабными декорациями и великолепным светом и звуком.

Треклист:
01. Берега
02. Он был старше ее
03. Где-то за тучами
04. Ну и что
05. Танго разбитых сердец
06. Небо
07. Я слушал дождь
08. Свои
09. Я тебя не люблю
10. Уходи красиво
11. Рюмка водки
12. Обернитесь
13. Самый лучший день
14. Водопадом
15. Лондон
16. Се ля ви
17. Она

Формат: HDTV, TS
Видео: 1920x1080 (16:9), 25,000 fps, AVC, 12,0 Mbps avg, 0.231 bit/pixel
Аудио: 48,0 kHz, AC-3, 2 ch, 384 kbps

Общее
Идентификатор : 1 (0x1)
Полное имя : C:\Users\gva\Videos\grigory_leps_ubileyniy_[tfile.ru]\Grigory.Leps.08.03.2013.ts
Формат : MPEG-TS
Размер файла : 7,66 Гбайт
Продолжительность : 1 ч. 24 м.
Режим общего битрейта : Переменный
Общий поток : 13,0 Мбит/сек

Видео
Идентификатор : 305 (0x131)
Идентификатор меню : 1 (0x1)
Формат : AVC
Формат/Информация : Advanced Video Codec
Профиль формата : [email protected]
Параметр CABAC формата : Да
Параметр ReFrames формата : 3 кадра
Идентификатор кодека : 27
Продолжительность : 1 ч. 24 м.
Битрейт : 12,0 Мбит/сек
Ширина : 1920 пикселей
Высота : 1080 пикселей
Соотношение сторон : 16:9
Частота кадров : 25,000 кадров/сек
Стандарт вещания : Component
Цветовое пространство : YUV
Субдискретизация насыщенности : 4:2:0
Битовая глубина : 8 бит
Тип развёртки : Чересстрочная
Порядок развёртки : Верхнее поле первое
Бит/(Пиксели*Кадры) : 0.231
Размер потока : 7,06 Гбайт (92%)
Основные цвета : BT.709
Характеристики трансфера : BT.709
Коэффициенты матрицы : BT.709

Аудио
Идентификатор : 415 (0x19F)
Идентификатор меню : 1 (0x1)
Формат : AC-3
Формат/Информация : Audio Coding 3
Расширение режима : CM (complete main)
Параметр Endianness формата : Big
Идентификатор кодека : 6
Продолжительность : 1 ч. 24 м.
Вид битрейта : Постоянный
Битрейт : 384 Кбит/сек
Каналы : 2 канала
Расположение каналов : Front: L R
Частота : 48,0 КГц
Битовая глубина : 16 бит
Метод сжатия : С потерями
Размер потока : 232 Мбайт (3%)
Язык : Russian
   
Торрент: Зарегистрирован [26 мар 2013, 11:56] За каждые 2 ГБ. аплоада (сидирования) этого торрента начисляется бонус: 0.001 Скачать торрент
Скачать торрент
О MediaGet
[ Размер 19.9 КБ / Просмотров 68 ]

Статус:
 
Приватный: Нет (DHT включён)
Размер: 7.66 ГБ (8 228 516 164 байт)
   

Торренты, на самом деле, это не символ пиратства, а зародыш утопического социализма. Деньги там ничего не значат, а все люди равны: нет богатых, нет бедных. Есть только трекеры и раздачи.
честно скопипастила с просторов инета
Аватара пользователя
Пир-флудер
Пир-флудер
 
Раздал: 1.05 ТБ
Скачал: 244.51 ГБ
Ратио: 4.438
Сообщения: 661
Зарегистрирован: 22 июл 2010, 06:58
Откуда: Волшебная страна ОЗ
  • Личное сообщение
  • Сайт

Вернуться в Pop, Eurodance, Disco

Кто сейчас на конференции

Зарегистрированные пользователи: нет зарегистрированных пользователей

cron
Ресурс не предоставляет электронные версии произведений, а занимается лишь коллекционированием и каталогизацией ссылок, присылаемых и публикуемых на форуме нашими читателями. Если вы являетесь правообладателем какого-либо представленного материала и не желаете чтобы ссылка на него находилась в нашем каталоге, свяжитесь с нами и мы незамедлительно удалим её. Файлы для обмена на трекере предоставлены пользователями сайта, и администрация не несёт ответственности за их содержание. Просьба не заливать файлы, защищенные авторскими правами, а также файлы нелегального содержания!
cron