Голос. Дети (2016.02.20) HDTVRip (сезон 3, выпуск 1) скачать торрент

Русские телепередачи, Шоу, ТВ Шоу, Скачать без регистрации

Модератор: Модераторы видео

  • Статистика раздачи
Размер: 1.43 ГБ   |  Зарегистрирован: 21 фев 2016, 16:50   |   .torrent скачан: 0 раз
Сидеров: 0  [ 0 байт/сек ]     Личеров: 0  [ 0 байт/сек ]  
Список файлов : Кто скачал : Раздают : Скачивают : Кто благодарил : История : Не раздающие : Запрашивали сидеров : Внешние трекеры 
  

Голос. Дети (2016.02.20) HDTVRip (сезон 3, выпуск 1)

Сообщение Админ » 21 фев 2016, 16:50

Голос. Дети (2016.02.20) HDTVRip (сезон 3, выпуск 1)

Телекомпания: Первый канал
Жанр: ТВ-Шоу, развлекательный
Ведущий: Дмитрий Нагиев
Жюри: Дима Билан, Леонид Агутин и Пелагея.

Описание:
"Первый канал" представляет премьеру третьего сезона музыкального проекта "Голос. Дети". Детский конкурсный проект строится по тем же принципам, что и взрослый. Из тысяч заявок на участие, присланных в адрес "Первого канала", музыкальная редакция отобрала несколько сотен самых достойных. В ходе предварительных кастингов к участию в слепых прослушиваниях было допущено 120 человек. Теперь очередь фирменных "слепых прослушиваний", "поединков" и финала. Наставники команд: Дима Билан, Пелагея и Леонид Агутин. Для последнего, при том что наравне с коллегами он является ветераном "Голоса", появление в проекте "Голос. Дети" станет дебютом. В ходе "слепых прослушиваний" наставники наберут свои команды, в каждой из которых будет по 15 юных исполнителей в возрасте от 7 до 14 лет. В "поединках" каждая команда будет разбита на тройки, и из каждой тройки в следующий этап выйдет только один певец. В "батлах" пятерка вокалистов в каждой команде поспорит за 2 места в финале. А в финале зрители путем голосования в прямом эфире назовут победителя всего проекта.

Релиз от: olegka7373
Продолжительность: ~ 01:32:56
Качество видео: HDTVRip
Субтитры: Отсутствуют

Видео: MPEG4, XviD, 720x400 (16:9), 25.000 fps, 1 994 Kbps (0.277 bit/pixel)
Аудио: AC-3, 48.0 KHz, 2 ch, 192 Kbps, CBR
Код:
Код: Выделить всё
 Формат                                   : AVI
Формат/Информация                        : Audio Video Interleave
Размер файла                             : 1,43 Гбайт
Продолжительность                        : 1 ч. 32 м.
Общий поток                              : 2196 Кбит/сек
Программа кодирования                    : VirtualDubMod 1.5.10.3 (build 2550/release)
Библиотека кодирования                   : VirtualDubMod build 2550/release

Видео
Идентификатор                            : 0
Формат                                   : MPEG-4 Visual
Профиль формата                          : Advanced [email protected]
Параметр BVOP формата                    : 1
Параметр QPel формата                    : Нет
Параметр GMC формата                     : Без точки перехода
Параметр матрицы формата                 : Выборочная
Идентификатор кодека                     : XVID
Идентификатор кодека/Подсказка           : XviD
Продолжительность                        : 1 ч. 32 м.
Битрейт                                  : 1994 Кбит/сек
Ширина                                   : 720 пикселей
Высота                                   : 400 пикселей
Соотношение сторон                       : 16:9
Частота кадров                           : 25,000 кадров/сек
Цветовое пространство                    : YUV
Субдискретизация насыщенности            : 4:2:0
Битовая глубина                          : 8 бит
Тип развёртки                            : Прогрессивная
Метод сжатия                             : С потерями
Бит/(Пиксели*Кадры)                      : 0.277
Размер потока                            : 1,29 Гбайт (91%)
Библиотека кодирования                   : XviD 73

Аудио
Идентификатор                            : 1
Формат                                   : AC-3
Формат/Информация                        : Audio Coding 3
Расширение режима                        : CM (complete main)
Параметр Endianness формата              : Big
Идентификатор кодека                     : 2000
Продолжительность                        : 1 ч. 32 м.
Вид битрейта                             : Постоянный
Битрейт                                  : 192 Кбит/сек
Каналы                                   : 2 канала
Расположение каналов                     : Front: L R
Частота                                  : 48,0 КГц
Битовая глубина                          : 16 бит
Метод сжатия                             : С потерями
Размер потока                            : 128 Мбайт (9%)
Выравнивание                             : Разделение по промежуткам
Продолжительность промежутка             : 40  мс. (1,00 видеокадр)
Время предзагрузки промежутка            : 500  мс.
 

Скриншоты:

   
Торрент: Зарегистрирован [21 фев 2016, 16:50] Скачать торрент
Скачать торрент
О MediaGet
[ Размер 15.08 КБ / Просмотров 77 ]

Статус:
 
Приватный: Нет (DHT включён)
Размер: 1.43 ГБ (1 530 478 592 байт)
   
Аватара пользователя

Администратор
Администратор
 
Раздал: 2.33 ПБ
Скачал: 1.02 ПБ
Ратио: 2.281
Сообщения: 3723
Зарегистрирован: 07 май 2010, 17:29
Medals: 1
Лучший релиз за месяц (1)
  • Личное сообщение
  • ICQ

Вернуться в Отечественные телепередачи

Кто сейчас на конференции

Зарегистрированные пользователи: нет зарегистрированных пользователей

Ресурс не предоставляет электронные версии произведений, а занимается лишь коллекционированием и каталогизацией ссылок, присылаемых и публикуемых на форуме нашими читателями. Если вы являетесь правообладателем какого-либо представленного материала и не желаете чтобы ссылка на него находилась в нашем каталоге, свяжитесь с нами и мы незамедлительно удалим её. Файлы для обмена на трекере предоставлены пользователями сайта, и администрация не несёт ответственности за их содержание. Просьба не заливать файлы, защищенные авторскими правами, а также файлы нелегального содержания!
cron