Импровизация / Камеди Клаб / Комеди Клаб / Comedy Club (05.02.2016) SATRip (выпуск 1) скачать торрент

Русские телепередачи, Шоу, ТВ Шоу, Скачать без регистрации

Модератор: Модераторы видео

  • Статистика раздачи
Размер: 662.63 МБ   |  Зарегистрирован: 06 фев 2016, 15:09   |   .torrent скачан: 22 раз
Сидеров: 626  [ 0 байт/сек ]     Личеров: 29  [ 0 байт/сек ]  
Список файлов : Кто скачал : Раздают : Скачивают : Кто благодарил : История : Не раздающие : Запрашивали сидеров : Внешние трекеры 
  

Импровизация / Камеди Клаб / Комеди Клаб / Comedy Club (05.02.2016) SATRip (выпуск 1)

Сообщение Админ » 06 фев 2016, 15:09

Импровизация / Камеди Клаб / Комеди Клаб / Comedy Club (05.02.2016) SATRip (выпуск 1)

Телекомпания: ТНТ
Жанр: Юмор
Ведущий: Павел Воля

Описание:
«Импровизация» — это новое непредсказуемое комедийное шоу от Comedy Club Production. В нём нет сценария и всё, происходящее на сцене, придумывается участниками на ходу. Под управлением ведущего Павла Воли четыре комика и один звездный гость оказываются в самых странных ситуациях — и выбираются из них с юмором. Прежде, чем попасть на экран, четыре участника «Импровизации» (Арсений Попов, Дима Позов, Сергей Матвиенко и Антон Шастун) несколько лет совершенствовали этот формат на клубных вечеринках.
Каждый выпуск шоу разбит на части, в которых действуют свои правила: например, в одной комики должны разговаривать только вопросами, в другой — ходят с завязанными глазами по комнате с мышеловками, в третьей — шутят с электрошокерами на руках, которые бьют их током. В каждом шоу к комикам присоединяется приглашенная звезда. Только в «Импровизации» можно заставить певицу Сати Казанову выслушивать, как комики дают интервью от её лица, Ольгу Бузову — подавать реплики, как суфлер, а Мигеля угадывать, кем он был в прошлой жизни. «Импровизация» — шоу для тех, кому надоел предсказуемый юмор и кто хочет посмотреть, каково комикам на сцене без сценария и заготовленных шуток.
«Комедия импровизации — весьма распространенный формат в Европе, в Америке. В каждом вузе, в каждой школе есть импровизационная команда. При этом это традиционный жанр, он уходит корнями в итальянский театр масок», — говорит креативный продюсер шоу Стас Шеминов. Импровизация — вершина комедийного спорта, уважаемый жанр, которым мечтаю заниматься многие комики, но который требует постоянной практики. Участники «Импровизации» посвятили этому жанру несколько лет — и стали настоящими мастерами.

Релиз от: ramzesII
Продолжительность: ~ 00:47:48
Качество видео: SATRip

Видео: MPEG4, XviD, 720x400 (16:9), 25.000 fps, 1 800 Kbps (0.250 bit/pixel)
Аудио: MP3, 48.0 KHz, 2 ch, 128 Kbps, CBR
Код:
Код: Выделить всё
 Формат                                   : AVI
Формат/Информация                        : Audio Video Interleave
Размер файла                             : 663 Мбайт
Продолжительность                        : 47 м.
Общий поток                              : 1938 Кбит/сек
Программа кодирования                    : VirtualDubMod 1.5.10.3 (build 2550/release)
Библиотека кодирования                   : VirtualDubMod build 2550/release

Видео
Идентификатор                            : 0
Формат                                   : MPEG-4 Visual
Профиль формата                          : Advanced [email protected]
Параметр BVOP формата                    : 1
Параметр QPel формата                    : Нет
Параметр GMC формата                     : Без точки перехода
Параметр матрицы формата                 : Default (H.263)
Идентификатор кодека                     : XVID
Идентификатор кодека/Подсказка           : XviD
Продолжительность                        : 47 м.
Битрейт                                  : 1800 Кбит/сек
Ширина                                   : 720 пикселей
Высота                                   : 400 пикселей
Соотношение сторон                       : 16:9
Частота кадров                           : 25,000 кадров/сек
Цветовое пространство                    : YUV
Субдискретизация насыщенности            : 4:2:0
Битовая глубина                          : 8 бит
Тип развёртки                            : Прогрессивная
Метод сжатия                             : С потерями
Бит/(Пиксели*Кадры)                      : 0.250
Размер потока                            : 616 Мбайт (93%)
Библиотека кодирования                   : XviD 67

Аудио
Идентификатор                            : 1
Формат                                   : MPEG Audio
Версия формата                           : Version 1
Профиль формата                          : Layer 3
Режим                                    : Joint stereo
Расширение режима                        : MS Stereo
Идентификатор кодека                     : 55
Идентификатор кодека/Подсказка           : MP3
Продолжительность                        : 47 м.
Вид битрейта                             : Постоянный
Битрейт                                  : 128 Кбит/сек
Каналы                                   : 2 канала
Частота                                  : 48,0 КГц
Метод сжатия                             : С потерями
Размер потока                            : 43,8 Мбайт (7%)
Выравнивание                             : Разделение по промежуткам
Продолжительность промежутка             : 40  мс. (1,00 видеокадр)
Время предзагрузки промежутка            : 500  мс.
Библиотека кодирования                   : LAME3.99.5
 

Скриншоты:
   
Торрент: Зарегистрирован [06 фев 2016, 15:09] Скачать торрент
Скачать торрент
О MediaGet
[ Размер 13.75 КБ / Просмотров 189 ]

Статус:
 
Приватный: Нет (DHT включён)
Размер: 662.63 МБ (694 812 672 байт)
   
Аватара пользователя

Администратор
Администратор
 
Раздал: 2.33 ПБ
Скачал: 1.02 ПБ
Ратио: 2.281
Сообщения: 3723
Зарегистрирован: 07 май 2010, 17:29
Medals: 1
Лучший релиз за месяц (1)
  • Личное сообщение
  • ICQ

  • Похожие торренты
    Ответы
    Просмотры
    Последнее сообщение

Вернуться в Отечественные телепередачи

Кто сейчас на конференции

Зарегистрированные пользователи: нет зарегистрированных пользователей

cron
Ресурс не предоставляет электронные версии произведений, а занимается лишь коллекционированием и каталогизацией ссылок, присылаемых и публикуемых на форуме нашими читателями. Если вы являетесь правообладателем какого-либо представленного материала и не желаете чтобы ссылка на него находилась в нашем каталоге, свяжитесь с нами и мы незамедлительно удалим её. Файлы для обмена на трекере предоставлены пользователями сайта, и администрация не несёт ответственности за их содержание. Просьба не заливать файлы, защищенные авторскими правами, а также файлы нелегального содержания!
cron