Точь-в-точь. Сезон №3. Выпуск №11 (2015.12.27) SATRip (части 1-2 из 2) скачать торрент

Русские телепередачи, Шоу, ТВ Шоу, Скачать без регистрации

Модератор: Модераторы видео

  • Статистика раздачи
Размер: 2.1 ГБ   |  Зарегистрирован: 12 янв 2016, 02:37   |   .torrent скачан: 0 раз
Сидеров: 10  [ 0 байт/сек ]     Личеров: 0  [ 0 байт/сек ]  
Список файлов : Кто скачал : Раздают : Скачивают : Кто благодарил : История : Не раздающие : Запрашивали сидеров : Внешние трекеры 
  

Точь-в-точь. Сезон №3. Выпуск №11 (2015.12.27) SATRip (части 1-2 из 2)

Сообщение Админ » 12 янв 2016, 02:37

Точь-в-точь. Сезон №3. Выпуск №11 (2015.12.27) SATRip

Телекомпания: Первый канал
Жанр: ТВ-шоу
Производство: Россия

Ведущие: Александр Олешко
Жюри: Любовь Казарновская, Максим Аверин, Геннадий Хазанов, Леонид Ярмольник.

Описание:
Шоу "Точь-в-точь" возвращается! Новые участники вновь примерят на себя образы легендарных музыкантов, меняясь до неузнаваемости.

Двенадцать участников уже репетируют вокальные партии, отрабатывают движения, воссоздают атмосферу клипов и привыкают к костюмам своих героев.

Выступления будут оценивать: Любовь Казарновская, Максим Аверин, Геннадий Хазанов, Леонид Ярмольник. Члены жюри выставляют оценки по пятибалльной шкале каждому участнику после его выступления. Кроме того, в тайной комнате находится третейский судья, который объявит свои оценки в финале шоу.

Релиз от: -=DeMoH=-
Продолжительность: 02::
Качество видео: SATRip

Видео: MPEG4, XviD, 704x448 (1.571), 25.000 fps, 1 797 Kbps (0.228 bit/pixel)
Аудио: AC-3, 48.0 KHz, 2 ch, 192 Kbps, CBR
Код:
Код: Выделить всё
 Формат                                   : AVI
Формат/Информация                        : Audio Video Interleave
Размер файла                             : 1,31 Гбайт
Продолжительность                        : 1 ч. 33 м.
Общий поток                              : 1999 Кбит/сек
Программа кодирования                    : VirtualDubMod 1.5.10.3 | [url=http://www.virtualdub-fr.org]www.virtualdub-fr.org[/url] || (build 2550/release)
Библиотека кодирования                   : VirtualDub build 35491/release

Видео
Идентификатор                            : 0
Формат                                   : MPEG-4 Visual
Профиль формата                          : Advanced [email protected]
Параметр BVOP формата                    : 2
Параметр QPel формата                    : Нет
Параметр GMC формата                     : Без точки перехода
Параметр матрицы формата                 : Default (H.263)
Идентификатор кодека                     : XVID
Идентификатор кодека/Подсказка           : XviD
Продолжительность                        : 1 ч. 33 м.
Битрейт                                  : 1797 Кбит/сек
Ширина                                   : 704 пикселя
Высота                                   : 448 пикселей
Соотношение сторон                       : 16:10
Частота кадров                           : 25,000 кадров/сек
Цветовое пространство                    : YUV
Субдискретизация насыщенности            : 4:2:0
Битовая глубина                          : 8 бит
Тип развёртки                            : Прогрессивная
Метод сжатия                             : С потерями
Бит/(Пиксели*Кадры)                      : 0.228
Размер потока                            : 1,18 Гбайт (90%)
Библиотека кодирования                   : XviD 1.2.1 (UTC 2008-12-04)

Аудио
Идентификатор                            : 1
Формат                                   : AC-3
Формат/Информация                        : Audio Coding 3
Расширение режима                        : CM (complete main)
Параметр Endianness формата              : Big
Идентификатор кодека                     : 2000
Продолжительность                        : 1 ч. 33 м.
Вид битрейта                             : Постоянный
Битрейт                                  : 192 Кбит/сек
Каналы                                   : 2 канала
Расположение каналов                     : Front: L R
Частота                                  : 48,0 КГц
Битовая глубина                          : 16 бит
Метод сжатия                             : С потерями
Размер потока                            : 129 Мбайт (10%)
Выравнивание                             : Разделение по промежуткам
Продолжительность промежутка             : 40  мс. (1,00 видеокадр)
Время предзагрузки промежутка            : 500  мс.
 

Скриншоты:

Время раздачи: 24/7. До первых 5 скачавших.
Точь-в-точь на NoNaMe Club
   
Торрент: Зарегистрирован [12 янв 2016, 02:37] Скачать торрент
Скачать торрент
О MediaGet
[ Размер 11.5 КБ / Просмотров 112 ]

Статус:
 
Приватный: Нет (DHT включён)
Размер: 2.1 ГБ (2 250 415 604 байт)
   
Аватара пользователя

Администратор
Администратор
 
Раздал: 2.33 ПБ
Скачал: 1.02 ПБ
Ратио: 2.281
Сообщения: 3723
Зарегистрирован: 07 май 2010, 17:29
Medals: 1
Лучший релиз за месяц (1)
  • Личное сообщение
  • ICQ

Вернуться в Отечественные телепередачи

Кто сейчас на конференции

Зарегистрированные пользователи: нет зарегистрированных пользователей

Ресурс не предоставляет электронные версии произведений, а занимается лишь коллекционированием и каталогизацией ссылок, присылаемых и публикуемых на форуме нашими читателями. Если вы являетесь правообладателем какого-либо представленного материала и не желаете чтобы ссылка на него находилась в нашем каталоге, свяжитесь с нами и мы незамедлительно удалим её. Файлы для обмена на трекере предоставлены пользователями сайта, и администрация не несёт ответственности за их содержание. Просьба не заливать файлы, защищенные авторскими правами, а также файлы нелегального содержания!
cron