Еврейское счастье (2016.01.07) SATRip (выпуск 3) скачать торрент

Русские телепередачи, Шоу, ТВ Шоу, Скачать без регистрации

Модератор: Модераторы видео

  • Статистика раздачи
Размер: 691.73 МБ   |  Зарегистрирован: 08 янв 2016, 03:43   |   .torrent скачан: 3 раз
Сидеров: 226  [ 0 байт/сек ]     Личеров: 29  [ 0 байт/сек ]  
Список файлов : Кто скачал : Раздают : Скачивают : Кто благодарил : История : Не раздающие : Запрашивали сидеров : Внешние трекеры 
  

Еврейское счастье (2016.01.07) SATRip (выпуск 3)

Сообщение Админ » 08 янв 2016, 03:43

Еврейское счастье (2016.01.07) SATRip (выпуск 3)

Телекомпания: Первый канал
Жанр: Документальный

Ведущие: Владимир Познер и Иван Ургант

Описание:
Владимир Познер и Иван Ургант отправляются в очередное путешествие. На этот раз по Земле Обетованной.

В выпуске:
Кибуц – дело добровольное: Существовал бы Израиль без кибуцного движения? Вероятно, нет.
Существовал бы Израиль без кибуцного движения? Вероятно, нет. Потому что дух непокорности родил кибуц, а кибуц родил таких легендарных строителей и защитников еврейского государства как Моше Даян, Голда Мейер, Шимон Перес и еще многих-многих других.
Первый кибуц был основан в 1910 году в долине озера Кинерет на земле, выкупленной Еврейским национальным фондом у арабов деревни Ум-джуни. Вокруг были малярийные болота. Иссохшая земля. Голые‚ выжженные на солнце горы. Пионеров, приехавших строить новый мир - родину для евреев, не пугали никакие трудности. Ни тяжелый труд, ни ужасающие условия жизни и климат.
Сегодня в Израиле около 220 кибуцев. Они изменились во многом. Что же из себя представляет коммунизм по-израильски в наши дни? За счет чего, потерпев неудачу во всем мире, этот эксперимент до сих пор продолжается здесь, в Израиле? Что за люди живут в этом обособленном мире? В чем их секрет? Владимир Познер исполнит свою давнюю мечту побывать в кибуце и пообщаться с теми, кто живет в нем и кто, несмотря ни на что, сохраняет социалистическую мечту живой. Владимир Владимирович посетит две общины. Первый кибуц Дгания, а также один из самых процветающих кибуцев в Израиле - Маган-Михаэль.

Релиз от: -=DeMoH=-
Продолжительность: 00:48:23
Качество видео: SATRip
Субтитры: Отсутствуют

Видео: MPEG4, XviD, 704x448 (1.571), 25.000 fps, 1 797 Kbps (0.228 bit/pixel)
Аудио: AC-3, 48.0 KHz, 2 ch, 192 Kbps, CBR
Код:
Код: Выделить всё
Формат                                   : AVI
Формат/Информация                        : Audio Video Interleave
Размер файла                             : 692 Мбайт
Продолжительность                        : 48 м.
Общий поток                              : 1999 Кбит/сек
Программа кодирования                    : VirtualDubMod 1.5.10.3 | [url=http://www.virtualdub-fr.org]www.virtualdub-fr.org[/url] || (build 2550/release)
Библиотека кодирования                   : VirtualDubMod build 2550/release

Видео
Идентификатор                            : 0
Формат                                   : MPEG-4 Visual
Профиль формата                          : Advanced [email protected]
Параметр BVOP формата                    : 2
Параметр QPel формата                    : Нет
Параметр GMC формата                     : Без точки перехода
Параметр матрицы формата                 : Default (H.263)
Идентификатор кодека                     : XVID
Идентификатор кодека/Подсказка           : XviD
Продолжительность                        : 48 м.
Битрейт                                  : 1797 Кбит/сек
Ширина                                   : 704 пикселя
Высота                                   : 448 пикселей
Соотношение сторон                       : 16:10
Частота кадров                           : 25,000 кадров/сек
Цветовое пространство                    : YUV
Субдискретизация насыщенности            : 4:2:0
Битовая глубина                          : 8 бит
Тип развёртки                            : Прогрессивная
Метод сжатия                             : С потерями
Бит/(Пиксели*Кадры)                      : 0.228
Размер потока                            : 622 Мбайт (90%)
Библиотека кодирования                   : XviD 1.2.1 (UTC 2008-12-04)

Аудио
Идентификатор                            : 1
Формат                                   : AC-3
Формат/Информация                        : Audio Coding 3
Расширение режима                        : CM (complete main)
Параметр Endianness формата              : Big
Идентификатор кодека                     : 2000
Продолжительность                        : 48 м.
Вид битрейта                             : Постоянный
Битрейт                                  : 192 Кбит/сек
Каналы                                   : 2 канала
Расположение каналов                     : Front: L R
Частота                                  : 48,0 КГц
Битовая глубина                          : 16 бит
Метод сжатия                             : С потерями
Размер потока                            : 66,4 Мбайт (10%)
Выравнивание                             : Разделение по промежуткам
Продолжительность промежутка             : 40  мс. (1,00 видеокадр)
Время предзагрузки промежутка            : 500  мс.
 

Скриншоты:

   
Торрент: Зарегистрирован [08 янв 2016, 03:43] Скачать торрент
Скачать торрент
О MediaGet
[ Размер 14.26 КБ / Просмотров 141 ]

Статус:
 
Приватный: Нет (DHT включён)
Размер: 691.73 МБ (725 329 920 байт)
   
Аватара пользователя

Администратор
Администратор
 
Раздал: 2.33 ПБ
Скачал: 1.02 ПБ
Ратио: 2.281
Сообщения: 3723
Зарегистрирован: 07 май 2010, 17:29
Medals: 1
Лучший релиз за месяц (1)
  • Личное сообщение
  • ICQ

Вернуться в Отечественные телепередачи

Кто сейчас на конференции

Зарегистрированные пользователи: parsek85

Ресурс не предоставляет электронные версии произведений, а занимается лишь коллекционированием и каталогизацией ссылок, присылаемых и публикуемых на форуме нашими читателями. Если вы являетесь правообладателем какого-либо представленного материала и не желаете чтобы ссылка на него находилась в нашем каталоге, свяжитесь с нами и мы незамедлительно удалим её. Файлы для обмена на трекере предоставлены пользователями сайта, и администрация не несёт ответственности за их содержание. Просьба не заливать файлы, защищенные авторскими правами, а также файлы нелегального содержания!
cron