День космических историй. Американцы на Луне (2016.01.05) SATRip скачать торрент

Русские телепередачи, Шоу, ТВ Шоу, Скачать без регистрации

Модератор: Модераторы видео

  • Статистика раздачи
Размер: 638.96 МБ   |  Зарегистрирован: 07 янв 2016, 00:30   |   .torrent скачан: 3 раз
Сидеров: 0  [ 0 байт/сек ]     Личеров: 0  [ 0 байт/сек ]  
Список файлов : Кто скачал : Раздают : Скачивают : Кто благодарил : История : Не раздающие : Запрашивали сидеров : Внешние трекеры 
  

День космических историй. Американцы на Луне (2016.01.05) SATRip

Сообщение Админ » 07 янв 2016, 00:30

День космических историй. Американцы на Луне (2016.01.05) SATRip

Телекомпания: РЕН
Жанр: Документальный
Ведущий: Игорь Прокопенко

Описание:
Каждый день приносит научные сенсации. Порой они опровергают незыблемые истины. Или решают глобальные проблемы, над которыми столетиями бились ученые. Но однозначно - меняют будущее человечества.
День космических историй - это хит-парад самых новых и интересных научно-популярных программ. Каждый фильм - это увлекательное путешествие в мир сенсационных открытий. Эксклюзивные интервью ведущих мировых ученых, смелые эксперименты, неожиданные идеи, изложенные доступным языком и… новые загадки Вселенной! Кто создал человека? Когда мы полетим на Марс? Какие тайны скрывает мировой океан? Что нашли американцы на Луне, и были ли они там на самом деле? Эксперты фильмов предложат ответы на эти и множество других интригующих вопросов.

Релиз от: r00tor
Продолжительность: 00:45:58
Качество видео: SATRip

Видео: MPEG4, XviD, 704x448 (1.571), 25.000 fps, 1 807 Kbps (0.229 bit/pixel)
Аудио: MP3, 48.0 KHz, 2 ch, 128 Kbps, CBR
Код:
Код: Выделить всё
Формат                                   : AVI
Формат/Информация                        : Audio Video Interleave
Размер файла                             : 639 Мбайт
Продолжительность                        : 45 м.
Общий поток                              : 1943 Кбит/сек
Программа кодирования                    : VirtualDubMod 1.5.10.3 | [url=http://www.virtualdub-fr.org]www.virtualdub-fr.org[/url] || (build 2550/release)
Библиотека кодирования                   : VirtualDubMod build 2550/release

Видео
Идентификатор                            : 0
Формат                                   : MPEG-4 Visual
Профиль формата                          : Advanced [email protected]
Параметр BVOP формата                    : 2
Параметр QPel формата                    : Нет
Параметр GMC формата                     : Без точки перехода
Параметр матрицы формата                 : Default (MPEG)
Идентификатор кодека                     : XVID
Идентификатор кодека/Подсказка           : XviD
Продолжительность                        : 45 м.
Битрейт                                  : 1805 Кбит/сек
Ширина                                   : 704 пикселя
Высота                                   : 448 пикселей
Соотношение сторон                       : 16:10
Частота кадров                           : 25,000 кадров/сек
Цветовое пространство                    : YUV
Субдискретизация насыщенности            : 4:2:0
Битовая глубина                          : 8 бит
Тип развёртки                            : Прогрессивная
Метод сжатия                             : С потерями
Бит/(Пиксели*Кадры)                      : 0.229
Размер потока                            : 594 Мбайт (93%)
Библиотека кодирования                   : XviD 1.2.1 (UTC 2008-12-04)

Аудио
Идентификатор                            : 1
Формат                                   : MPEG Audio
Версия формата                           : Version 1
Профиль формата                          : Layer 3
Идентификатор кодека                     : 55
Идентификатор кодека/Подсказка           : MP3
Продолжительность                        : 45 м.
Вид битрейта                             : Постоянный
Битрейт                                  : 128 Кбит/сек
Каналы                                   : 2 канала
Частота                                  : 48,0 КГц
Метод сжатия                             : С потерями
Размер потока                            : 42,1 Мбайт (7%)
Выравнивание                             : Соединение по промежуткам
Продолжительность промежутка             : 40  мс. (1,00 видеокадр)
Время предзагрузки промежутка            : 504  мс.
Библиотека кодирования                   : LAME3.99r
Настройки программы                      : -m s -V 4 -q 2 -lowpass 17 -b 128
 

Скриншоты:

   
Торрент: Зарегистрирован [07 янв 2016, 00:30] Скачать торрент
Скачать торрент
О MediaGet
[ Размер 13.3 КБ / Просмотров 184 ]

Статус:
 
Приватный: Нет (DHT включён)
Размер: 638.96 МБ (669 995 008 байт)
   
Аватара пользователя

Администратор
Администратор
 
Раздал: 2.33 ПБ
Скачал: 1.02 ПБ
Ратио: 2.281
Сообщения: 3723
Зарегистрирован: 07 май 2010, 17:29
Medals: 1
Лучший релиз за месяц (1)
  • Личное сообщение
  • ICQ

  • Похожие торренты
    Ответы
    Просмотры
    Последнее сообщение

Вернуться в Отечественные телепередачи

Кто сейчас на конференции

Зарегистрированные пользователи: parsek85

Ресурс не предоставляет электронные версии произведений, а занимается лишь коллекционированием и каталогизацией ссылок, присылаемых и публикуемых на форуме нашими читателями. Если вы являетесь правообладателем какого-либо представленного материала и не желаете чтобы ссылка на него находилась в нашем каталоге, свяжитесь с нами и мы незамедлительно удалим её. Файлы для обмена на трекере предоставлены пользователями сайта, и администрация не несёт ответственности за их содержание. Просьба не заливать файлы, защищенные авторскими правами, а также файлы нелегального содержания!
cron