Михаил Задорнов. Смех в конце тоннеля (2016.01.01) SATRip скачать торрент

Русские телепередачи, Шоу, ТВ Шоу, Скачать без регистрации

Модератор: Модераторы видео

  • Статистика раздачи
Размер: 1.39 ГБ   |  Зарегистрирован: 03 янв 2016, 01:18   |   .torrent скачан: 8 раз
Сидеров: 319  [ 0 байт/сек ]     Личеров: 16  [ 0 байт/сек ]  
Список файлов : Кто скачал : Раздают : Скачивают : Кто благодарил : История : Не раздающие : Запрашивали сидеров : Внешние трекеры 
  

Михаил Задорнов. Смех в конце тоннеля (2016.01.01) SATRip

Сообщение Админ » 03 янв 2016, 01:18

Михаил Задорнов. Смех в конце тоннеля (2016.01.01) SATRip

Телекомпания: РЕН
Жанр: Юмористический концерт, сатира

Описание:
В новом концерте Михаил Задорнов подводит итоги ушедшего года. В остросатирической форме анализирует внешнюю и внутреннюю политику нашей страны, рассказывает о взаимоотношениях с Америкой, Евросоюзом, Украиной.

Режиссёр: Михаил Задорнов

Релиз от: Ponomarev1997
Продолжительность: 01:42:52
Качество видео: SATRip

Видео: MPEG4, XviD, 704x448 (1.571), 25.000 fps, 1 800 Kbps (0.228 bit/pixel)
Аудио: MP3, 48.0 KHz, 2 ch, 128 Kbps, CBR
Код:
Код: Выделить всё
 Формат                                   : AVI
Формат/Информация                        : Audio Video Interleave
Размер файла                             : 1,39 Гбайт
Продолжительность                        : 1 ч. 42 м.
Общий поток                              : 1937 Кбит/сек
Программа кодирования                    : Lavf56.40.101
Библиотека кодирования                   : VirtualDub build 32817/release

Видео
Идентификатор                            : 0
Формат                                   : MPEG-4 Visual
Профиль формата                          : Advanced [email protected]
Параметр BVOP формата                    : 2
Параметр QPel формата                    : Нет
Параметр GMC формата                     : Без точки перехода
Параметр матрицы формата                 : Default (MPEG)
Идентификатор кодека                     : XVID
Идентификатор кодека/Подсказка           : XviD
Продолжительность                        : 1 ч. 42 м.
Битрейт                                  : 1800 Кбит/сек
Ширина                                   : 704 пикселя
Высота                                   : 448 пикселей
Соотношение сторон                       : 16:10
Частота кадров                           : 25,000 кадров/сек
Цветовое пространство                    : YUV
Субдискретизация насыщенности            : 4:2:0
Битовая глубина                          : 8 бит
Тип развёртки                            : Прогрессивная
Метод сжатия                             : С потерями
Бит/(Пиксели*Кадры)                      : 0.228
Размер потока                            : 1,29 Гбайт (93%)
Библиотека кодирования                   : XviD 67

Аудио
Идентификатор                            : 1
Формат                                   : MPEG Audio
Версия формата                           : Version 1
Профиль формата                          : Layer 3
Режим                                    : Joint stereo
Расширение режима                        : MS Stereo
Идентификатор кодека                     : 55
Идентификатор кодека/Подсказка           : MP3
Продолжительность                        : 1 ч. 42 м.
Вид битрейта                             : Постоянный
Битрейт                                  : 128 Кбит/сек
Каналы                                   : 2 канала
Частота                                  : 48,0 КГц
Метод сжатия                             : С потерями
Размер потока                            : 94,2 Мбайт (7%)
Выравнивание                             : Разделение по промежуткам
Продолжительность промежутка             : 40  мс. (1,00 видеокадр)
Время предзагрузки промежутка            : 500  мс.
Библиотека кодирования                   : LAME3.99r
Настройки программы                      : -m j -V 4 -q 2 -lowpass 17 -b 128
 

Скриншоты:



Время раздачи: 24/7. До первых 5 скачавших.
Михаил Задорнов на NoNaMe Club

   
Торрент: Зарегистрирован [03 янв 2016, 01:18] Скачать торрент
Скачать торрент
О MediaGet
[ Размер 14.71 КБ / Просмотров 134 ]

Статус:
 
Приватный: Нет (DHT включён)
Размер: 1.39 ГБ (1 494 941 078 байт)
   
Аватара пользователя

Администратор
Администратор
 
Раздал: 2.33 ПБ
Скачал: 1.02 ПБ
Ратио: 2.281
Сообщения: 3723
Зарегистрирован: 07 май 2010, 17:29
Medals: 1
Лучший релиз за месяц (1)
  • Личное сообщение
  • ICQ

  • Похожие торренты
    Ответы
    Просмотры
    Последнее сообщение

Вернуться в Отечественные телепередачи

Кто сейчас на конференции

Зарегистрированные пользователи: нет зарегистрированных пользователей

cron
Ресурс не предоставляет электронные версии произведений, а занимается лишь коллекционированием и каталогизацией ссылок, присылаемых и публикуемых на форуме нашими читателями. Если вы являетесь правообладателем какого-либо представленного материала и не желаете чтобы ссылка на него находилась в нашем каталоге, свяжитесь с нами и мы незамедлительно удалим её. Файлы для обмена на трекере предоставлены пользователями сайта, и администрация не несёт ответственности за их содержание. Просьба не заливать файлы, защищенные авторскими правами, а также файлы нелегального содержания!
cron