Очаровательный коралловый риф 3Д / Faszination Korallenriff 3D [2011, документальный, HDTV) Half OverUnder / Вертикальная анаморфная стереопара скачать торрент

Документальные Фильмы в 3Д, 3D Video, Вертикальная стереопара, анаморфная стереопара, Анаглиф

Модератор: Модераторы видео

  • Статистика раздачи
Размер: 2.9 ГБ   |  Зарегистрирован: 04 фев 2015, 19:37   |   .torrent скачан: 1 раз
Сидеров: 0  [ 0 байт/сек ]     Личеров: 0  [ 0 байт/сек ]  
Список файлов : Кто скачал : Раздают : Скачивают : Кто благодарил : История : Не раздающие : Запрашивали сидеров : Внешние трекеры 
  

Очаровательный коралловый риф 3Д / Faszination Korallenriff 3D [2011, документальный, HDTV) Half OverUnder / Вертикальная анаморфная стереопара

Сообщение Боцман » 04 фев 2015, 19:37

Очаровательный коралловый риф 3Д / Faszination Korallenriff 3D

Год выпуска: 2010
Страна: Германия
Жанр: Документальный
Продолжительность: 42:33
Перевод: Отсутствует
Русские субтитры: Нет
Режиссёр и сценарист: Рене Чёпфер
В главных ролях: Морские обитатели

Автор рипа: Nikolay_-_-

Канал:

Формат 3D: SideBySide / Вертикальная анаморфная стереопара

Дополнительная информация: Немецкий комментарий звучал только, когда показавали новых обитателей, а в остальные просто потрясающе красивые кадры под не менее классную музыку.

Качество: HDTV
Формат: TS
Видео: H.264; 1920x1080 (16:9); 25.000 fps; 8882 kbps
Аудио: AC-3; 48000 Hz; 384 kbps; 6 channels
До захватывающых чудес коралловых рифов обычно добираются, чтобы увидеть только дайверы. Сейчас и у Вас есть такая возможность увидеть всё это в потрясающем 3D-изображении на экране.

Древних коралловые рифы, растут на морском дне. Сегодня они занимают площадь 600 000 квадратных километров. Они могут расти только в тёплых регионах, где температура воды не опускается ниже 18 градусов по Цельсию. Много водных животных и растений, они обеспечивают среду обитания. Коралловые рифы являются одними из самых богатых и самых сложных мест обитания на земле, но они же и самые чувствительные. Уже более двух третей рифов в мире повреждены в результате изменения климата сегодня.

Визуально потрясающий Документальный фильм отражает впечатляющий и красочный жизнь коралловых рифов. В экспозиции включают стекло, мяч и дикий образ рыбы, гигантские окуни и мурены, морские черепахи и самый большой акулой в мире - китовой.
Общее
Идентификатор : 1 (0x1)
Полное имя : F:\Закачки\Faszination Korallenriff 3D-Nikolay_-_-.ts
Формат : MPEG-TS
Размер файла : 2,90 Гбайт
Продолжительность : 42 м.
Режим общего битрейта : Переменный
Общий поток : 9752 Кбит/сек
Максимальный общий битрейт : 35,5 Мбит/сек

Видео
Идентификатор : 4113 (0x1011)
Идентификатор меню : 1 (0x1)
Формат : AVC
Формат/Информация : Advanced Video Codec
Профиль формата : [email protected]
Параметр CABAC формата : Да
Параметр ReFrames формата : 3 кадра
Параметр GOP формата : M=4, N=28
Идентификатор кодека : 27
Продолжительность : 42 м.
Вид битрейта : Переменный
Битрейт : 8882 Кбит/сек
Максимальный битрейт : 40,0 Мбит/сек
Ширина : 1920 пикселей
Высота : 1080 пикселей
Соотношение сторон : 16:9
Частота кадров : 25,000 кадров/сек
Стандарт вещания : Component
Цветовое пространство : YUV
Субдискретизация насыщенности : 4:2:0
Битовая глубина : 8 бит
Тип развёртки : Чересстрочная
Порядок развёртки : Верхнее поле первое
Бит/(Пиксели*Кадры) : 0.171
Размер потока : 2,65 Гбайт (91%)
Основные цвета : BT.709-5, BT.1361, IEC 61966-2-4, SMPTE RP177
Характеристики трансфера : BT.709-5, BT.1361
Коэффициенты матрицы : BT.709-5, BT.1361, IEC 61966-2-4 709, SMPTE RP177

Аудио
Идентификатор : 4352 (0x1100)
Идентификатор меню : 1 (0x1)
Формат : AC-3
Формат/Информация : Audio Coding 3
Расширение режима : CM (complete main)
Параметр Endianness формата : Big
Идентификатор кодека : 129
Продолжительность : 42 м.
Вид битрейта : Постоянный
Битрейт : 384 Кбит/сек
Каналы : 6 каналов
Расположение каналов : Front: L C R, Side: L R, LFE
Частота : 48,0 КГц
Битовая глубина : 16 бит
Метод сжатия : С потерями
Задержка видео : 22 мс.
Размер потока : 117 Мбайт (4%)
Язык : German
   
Торрент: Зарегистрирован [04 фев 2015, 19:37] Скачать торрент
Скачать торрент
О MediaGet
[ Размер 15.01 КБ / Просмотров 142 ]

Статус:
 
Приватный: Нет (DHT включён)
Размер: 2.9 ГБ (3 113 388 100 байт)
   
Хочешь стать частью команды MZ-Tracker?
Запишись
ТУТ
Аватара пользователя

Убийца клавиатуры
Убийца клавиатуры
 
Раздал: 12.57 ГБ
Скачал: 907.51 ГБ
Ратио: 0.017
Сообщения: 4358
Фото: 292
Зарегистрирован: 19 июн 2008, 23:00

  • Похожие торренты
    Ответы
    Просмотры
    Последнее сообщение

Вернуться в 3D Документальные фильмы

Кто сейчас на конференции

Зарегистрированные пользователи: нет зарегистрированных пользователей

Ресурс не предоставляет электронные версии произведений, а занимается лишь коллекционированием и каталогизацией ссылок, присылаемых и публикуемых на форуме нашими читателями. Если вы являетесь правообладателем какого-либо представленного материала и не желаете чтобы ссылка на него находилась в нашем каталоге, свяжитесь с нами и мы незамедлительно удалим её. Файлы для обмена на трекере предоставлены пользователями сайта, и администрация не несёт ответственности за их содержание. Просьба не заливать файлы, защищенные авторскими правами, а также файлы нелегального содержания!
cron