Таиланд (о.Пхукет) 3Д / Thailand в 3D (КИВ) [2012, Документальное кино-путеводитель, HDTV] Anamorph SideBySide / Горизонтальная анаморфная стереопара скачать торрент

Документальные Фильмы в 3Д, 3D Video, Вертикальная стереопара, анаморфная стереопара, Анаглиф

Модератор: Модераторы видео

  • Статистика раздачи
Размер: 15.26 ГБ   |  Зарегистрирован: 04 фев 2015, 19:35   |   .torrent скачан: 2 раз
Сидеров: 0  [ 0 байт/сек ]     Личеров: 0  [ 0 байт/сек ]  
Список файлов : Кто скачал : Раздают : Скачивают : Кто благодарил : История : Не раздающие : Запрашивали сидеров : Внешние трекеры 
  

Таиланд (о.Пхукет) 3Д / Thailand в 3D (КИВ) [2012, Документальное кино-путеводитель, HDTV] Anamorph SideBySide / Горизонтальная анаморфная стереопара

Сообщение Боцман » 04 фев 2015, 19:35

Год выпуска: 2012
Страна: Россия
Жанр: Документальное любительское кино-путеводитель.
Продолжительность: 1:40:00
Перевод: Не требуется
Русские субтитры: нет


Описание:
Таиланд ( остров Пхукет.)
Остров Пхукет — расположен на юго-западе Таиланда,омывается водами Андаманского моря, Индийского океана. Одноименная провинция Таиланда.
Показаны достопримечательности:
Пляж Карон,
Острова: Дж.Бонда, Панак, Хонг, Пхи-Пхи, Симиланские острова,
Большой Будда, Храм Чалонг, Храм Карон,
Приматы, Слоны, Прогулка на каноэ, Ферма бабочек.

Качество: HDTV
Контейнер: MPEG-Video
Формат 3D: Half SideBySide / Горизонтальная анаморфная стереопара
Порядок ракурсов: левый ракурс первый
Видео кодек: MPEG-PS
Аудио кодек: AC-3
Видео: MPEG-VIDEO 20,8 Мбит/сек, 1920х1080, 16:9, 25 кадров/сек. (PAL)
Аудио: AC-3 448 Кбит/сек, 48,0 Кгц,16 Бит, 6 Каналов.
General
Complete name : F:\Моё кино архив\Моё HD кино в 3D для инета\Кино\Таиланд (Пхукет)2012-3D.mpg
Format : MPEG-PS
File size : 15.3 GiB
Duration : 1h 40mn
Overall bit rate mode : Variable
Overall bit rate : 21.6 Mbps

Video
ID : 224 (0xE0)
Format : MPEG Video
Format version : Version 2
Format profile : [email protected]
Format settings, BVOP : No
Format settings, Matrix : Custom
Format settings, GOP : M=3, N=15
Duration : 1h 40mn
Bit rate mode : Variable
Bit rate : 20.8 Mbps
Maximum bit rate : 23.0 Mbps
Width : 1 920 pixels
Height : 1 080 pixels
Display aspect ratio : 16:9
Frame rate : 25.000 fps
Color space : YUV
Chroma subsampling : 4:2:0
Bit depth : 8 bits
Scan type : Interlaced
Scan order : Top Field First
Compression mode : Lossy
Bits/(Pixel*Frame) : 0.400
Time code of first frame : 00:00:00:00
Time code source : Group of pictures header
Stream size : 14.6 GiB (96%)

Audio
ID : 189 (0xBD)-128 (0x80)
Format : AC-3
Format/Info : Audio Coding 3
Mode extension : CM (complete main)
Format settings, Endianness : Big
Muxing mode : DVD-Video
Duration : 1h 40mn
Bit rate mode : Constant
Bit rate : 448 Kbps
Channel(s) : 6 channels
Channel positions : Front: L C R, Side: L R, LFE
Sampling rate : 48.0 KHz
Bit depth : 16 bits
Compression mode : Lossy
Stream size : 324 MiB (2%)
   
Торрент: Зарегистрирован [04 фев 2015, 19:35] За каждые 2 ГБ. аплоада (сидирования) этого торрента начисляется бонус: 0.001 Скачать торрент
Скачать торрент
О MediaGet
[ Размер 38.66 КБ / Просмотров 136 ]

Статус:
 
Приватный: Нет (DHT включён)
Размер: 15.26 ГБ (16 383 410 176 байт)
   
Хочешь стать частью команды MZ-Tracker?
Запишись
ТУТ
Аватара пользователя

Убийца клавиатуры
Убийца клавиатуры
 
Раздал: 12.57 ГБ
Скачал: 907.51 ГБ
Ратио: 0.017
Сообщения: 4358
Фото: 292
Зарегистрирован: 19 июн 2008, 23:00

  • Похожие торренты
    Ответы
    Просмотры
    Последнее сообщение

Вернуться в 3D Документальные фильмы

Кто сейчас на конференции

Зарегистрированные пользователи: Натали

Ресурс не предоставляет электронные версии произведений, а занимается лишь коллекционированием и каталогизацией ссылок, присылаемых и публикуемых на форуме нашими читателями. Если вы являетесь правообладателем какого-либо представленного материала и не желаете чтобы ссылка на него находилась в нашем каталоге, свяжитесь с нами и мы незамедлительно удалим её. Файлы для обмена на трекере предоставлены пользователями сайта, и администрация не несёт ответственности за их содержание. Просьба не заливать файлы, защищенные авторскими правами, а также файлы нелегального содержания!
cron