Приключение в Большом каньоне - Река в опасности 3д / Grand Canyon Adventure - River at Risk 3D (Грег Мак Гилливрей / Greg MacGillivray) [2008 г., Документальный, Живая природа, BDrip 720p] IMAX, OverUnder / Вертикальная стереопара скачать торрент

Документальные Фильмы в 3Д, 3D Video, Вертикальная стереопара, анаморфная стереопара, Анаглиф

Модератор: Модераторы видео

  • Статистика раздачи
Размер: 4.27 ГБ   |  Зарегистрирован: 04 фев 2015, 19:30   |   .torrent скачан: 0 раз
Сидеров: 0  [ 0 байт/сек ]     Личеров: 0  [ 0 байт/сек ]  
Список файлов : Кто скачал : Раздают : Скачивают : Кто благодарил : История : Не раздающие : Запрашивали сидеров : Внешние трекеры 
  

Приключение в Большом каньоне - Река в опасности 3д / Grand Canyon Adventure - River at Risk 3D (Грег Мак Гилливрей / Greg MacGillivray) [2008 г., Документальный, Живая природа, BDrip 720p] IMAX, OverUnder / Вертикальная стереопара

Сообщение Боцман » 04 фев 2015, 19:30

Приключение в Большом каньоне - Река в опасности 3д / Grand Canyon Adventure - River at Risk 3D
Год выпуска: 2008
Страна: США
Жанр: Документальный / Живая природа
Продолжительность: 00:44:36
Перевод: Отсутствует
Русские субтитры: есть
Режиссер: Greg MacGillivray

В ролях: Уэйд Дэвис, Никки Келли, Роберт Редфорд, Шена Ватахомиге

Описание: Мощный фильм от создателей «Эверест», рассказывающий об угрозе, нависшей над одним из главных пейзажных символов Америки.
Вы увидите великую реку Колорадо, которая напомнит нам о самой гнетущей современной проблеме окружающей среды – нарастающая нехватка пресной воды во всем мире. Присоединитесь к адвокатам, занимающимся защитой окружающей среды, - Роберту Ф. Кеннеди Мл. и Уэйду Дэвису и их дочерям, путешествующим в глубину Большого Каньона вниз по течению реки, протекающей сквозь него. У вас участиться пульса, когда вы увидите захватывающую поездку по реке через стремительные пороги и поразительные каньоны. С помощью сногсшибательных фотографий и съемок с воздуха новоявленные кинематографисты попытаются захватить всю красоту реки Колорадо и Большого Каньона.
Комментирует фильм – обладатель Оскара, актер, кинематографист и убежденный борец за сохранение окружающей среды Роберт Редфорд. Песни и музыку исполняет обладатель премии Гремми оркестр Дэйва Мэттьюса. Этот фильм заставит вас проявлять больше уважения к реками и воде и попытается донести осознание того, что и обычные люди могут изменить нашу высыхающую планету к лучшему.

Первый IMAX фильм в формате BD3D

Качество: BDrip
Формат: MKV
Формат 3D: OverUnder / Вертикальная стереопара
Видео кодек: x264
Аудио кодек: AC3
Видео: MPEG4 Video (H264) 1280x1440 23.98fps, ~12.8 Mbps
Аудио: English: Dolby AC3 48000Hz 6ch 640kbps

Доп. информация:Для просмотра понадобится стереоплеер, через него можно смотреть с любыми видами очков и стереомониторов. В Стереоскопик плеере в окне браузера поменять "тип файла" - "Все файлы" вместо "все поддерживаемые" (по умолчанию), иначе не увидит расширение MKV, потом Вид _ метод просмотра _ .... под свой тип очков или 3Д монитор.
Также возможен просмотр 2D версии на обычном плеере отрезав второй ракурс ffd фильтром
Format : Matroska
File size : 4.27 GiB
Duration : 44mn 36s
Overall bit rate : 13.7 Mbps
Encoded date : UTC 2010-07-25 12:25:58
Writing application : mkvmerge v4.1.1 ('Bouncin' Back') сборка от Jul 3 2010 22:54:08
Writing library : libebml v1.0.0 + libmatroska v1.0.0

Video
ID : 1
Format : AVC
Format/Info : Advanced Video Codec
Format profile : [email protected]
Format settings, CABAC : Yes
Format settings, ReFrames : 4 frames
Muxing mode : Container [email protected]
Codec ID : V_MPEG4/ISO/AVC
Duration : 44mn 36s
Bit rate : 12.8 Mbps
Width : 1 280 pixels
Height : 1 440 pixels
Display aspect ratio : 0.889
Frame rate : 23.976 fps
Resolution : 8 bits
Colorimetry : 4:2:0
Scan type : Progressive
Bits/(Pixel*Frame) : 0.289
Stream size : 3.98 GiB (93%)
Writing library : x264 core 104 r1677 19df41a
Encoding settings : cabac=1 / ref=4 / deblock=1:-1:-1 / analyse=0x3:0x113 / me=umh / subme=7 / psy=1 / psy_rd=1.00:0.15 / mixed_ref=1 / me_range=16 / chroma_me=1 / trellis=2 / 8x8dct=1 / cqm=0 / deadzone=21,11 / fast_pskip=1 / chroma_qp_offset=-3 / threads=6 / sliced_threads=0 / nr=0 / decimate=1 / interlaced=0 / constrained_intra=0 / bframes=6 / b_pyramid=0 / b_adapt=2 / b_bias=0 / direct=3 / weightb=1 / open_gop=0 / weightp=2 / keyint=250 / keyint_min=23 / scenecut=40 / intra_refresh=0 / rc_lookahead=40 / rc=crf / mbtree=1 / crf=18.0 / qcomp=0.60 / qpmin=10 / qpmax=51 / qpstep=4 / ip_ratio=1.40 / aq=2:1.00

Audio
ID : 2
Format : AC-3
Format/Info : Audio Coding 3
Format_Settings_ModeExtension : CM (complete main)
Codec ID : A_AC3
Duration : 44mn 36s
Bit rate mode : Constant
Bit rate : 640 Kbps
Channel(s) : 6 channels
Channel positions : Front: L C R, Side: L R, LFE
Sampling rate : 48.0 KHz
Stream size : 204 MiB (5%)

Text
ID : 3
Format : UTF-8
Codec ID : S_TEXT/UTF8
Codec ID/Info : UTF-8 Plain Text
Language : Russian
   
Торрент: Зарегистрирован [04 фев 2015, 19:30] Скачать торрент
Скачать торрент
О MediaGet
[ Размер 21.83 КБ / Просмотров 35 ]

Статус:
 
Приватный: Нет (DHT включён)
Размер: 4.27 ГБ (4 584 081 269 байт)
   
Хочешь стать частью команды MZ-Tracker?
Запишись
ТУТ
Аватара пользователя

Убийца клавиатуры
Убийца клавиатуры
 
Раздал: 12.57 ГБ
Скачал: 907.51 ГБ
Ратио: 0.017
Сообщения: 4358
Фото: 292
Зарегистрирован: 19 июн 2008, 23:00

  • Похожие торренты
    Ответы
    Просмотры
    Последнее сообщение

Вернуться в 3D Документальные фильмы

Кто сейчас на конференции

Зарегистрированные пользователи: Dievas

Ресурс не предоставляет электронные версии произведений, а занимается лишь коллекционированием и каталогизацией ссылок, присылаемых и публикуемых на форуме нашими читателями. Если вы являетесь правообладателем какого-либо представленного материала и не желаете чтобы ссылка на него находилась в нашем каталоге, свяжитесь с нами и мы незамедлительно удалим её. Файлы для обмена на трекере предоставлены пользователями сайта, и администрация не несёт ответственности за их содержание. Просьба не заливать файлы, защищенные авторскими правами, а также файлы нелегального содержания!
cron