Удивительный океан 3Д / Amazing Ocean 3D (Бенжамин Ичер, Тимо Дж. Мэйер / Benjamin Eicher, Timo Johannes Mayer) [2012, Документальный (видовой), BDrip-AVC] Half OverUnder / Вертикальная анаморфная стереопара скачать торрент

Документальные Фильмы в 3Д, 3D Video, Вертикальная стереопара, анаморфная стереопара, Анаглиф

Модератор: Модераторы видео

  • Статистика раздачи
Размер: 6.58 ГБ   |  Зарегистрирован: 04 фев 2015, 19:27   |   .torrent скачан: 0 раз
Сидеров: 0  [ 0 байт/сек ]     Личеров: 0  [ 0 байт/сек ]  
Список файлов : Кто скачал : Раздают : Скачивают : Кто благодарил : История : Не раздающие : Запрашивали сидеров : Внешние трекеры 
  

Удивительный океан 3Д / Amazing Ocean 3D (Бенжамин Ичер, Тимо Дж. Мэйер / Benjamin Eicher, Timo Johannes Mayer) [2012, Документальный (видовой), BDrip-AVC] Half OverUnder / Вертикальная анаморфная стереопара

Сообщение Боцман » 04 фев 2015, 19:27

Удивительный океан 3Д
/ Amazing Ocean 3DГод выпуска: 2012
Страна: Германия
Студия: (3D Los Banditos Films)
Жанр: Документальный (видовой)
Продолжительность: 00:49:13
Перевод: Профессиональный (полное дублирование)
Русские субтитры: есть
Режиссер: Тимо Дж. Мэйер, Бенжамин Ичер / Benjamin Eicher, Timo Joh. Mayer

Описание:

Полюбуйтесь маленькими стайками разноцветных рыбок, которые, кажется, вот-вот заплывут в вашу гостиную! Вы сможете рассмотреть вблизи кальмара и ловкого осьминога, восхитительного ската-манту, а также подружиться с дельфинами и черепахами — прямо на собственном диване! Снятый с помощью 3D-стереоскопа. Удивительный океан 3D станет захватывающим приключением для всей семьи. Настоящее удовольствие для всех, кто стремится к новым открытиям! А с помощью функции «Только музыка» вы сможете отключить повествование и насладиться потрясающими кадрами фильма под звуки музыки.


Премьера: 28 октября 2012
Релиз на DVD и Blu-Ray
: 6 декабря 2012, «Двадцатый Век Фокс СНГ»

.
Проверено на встроенном плейере ТВ LG LW 650S

Качество: BDrip
Контейнер: MKV
Anamorph OverUnder / Вертикальная анаморфная стереопара
Порядок ракурсов: левый ракурс первый
Видео кодек: x264
Аудио кодек: AC3
Видео: AVC / 23,976 fps / 1920х1080p / 17,9 Mbps
Аудио 1: - Русский / AC3 / 48 KHz / 2.0 ch / 448 Kbps (Dub)
Аудио 2: - Английский / AC3 / 48 KHz / 2.0 ch / 448 Kbps

Субтитры вшитые softsub (SRT):
#1 - Русские полные(включены по умолчанию)
#2 - Английские full
Общее
Уникальный идентификатор : 254794502684212196320776161528946075502 (0xBFAFA2E0865EB2DCB071F69EC0A7A76E)
Полное имя : E:\3Д фильмы\Amazing.Ocean(3D)2012.halfOU.1080p.AC3([email protected]).mkv
Формат : Matroska
Версия формата : Version 2
Размер файла : 6,58 Гбайт
Продолжительность : 49 м.
Общий поток : 19,1 Мбит/сек
Название фильма : Amazing.Ocean (2012) 3D-RuGroup
Дата кодирования : UTC 2012-12-03 19:54:33
Программа кодирования : mkvmerge v5.8.0 ('No Sleep / Pillow') built on Sep 2 2012 15:37:04
Библиотека кодирования : libebml v1.2.3 + libmatroska v1.3.0

Видео
Идентификатор : 1
Формат : AVC
Формат/Информация : Advanced Video Codec
Профиль формата : [email protected]
Параметр CABAC формата : Да
Параметр ReFrames формата : 4 кадра
Идентификатор кодека : V_MPEG4/ISO/AVC
Продолжительность : 49 м.
Битрейт : 17,9 Мбит/сек
Ширина : 1920 пикселей
Высота : 1080 пикселей
Соотношение сторон : 16:9
Режим частоты кадров : Постоянный
Частота кадров : 23,976 кадра/сек
Цветовое пространство : YUV
Субдискретизация насыщенности : 4:2:0
Битовая глубина : 8 бит
Тип развёртки : Прогрессивная
Бит/(Пиксели*Кадры) : 0.359
Размер потока : 6,14 Гбайт (93%)
Заголовок : rip by [email protected]
Библиотека кодирования : x264 core 116 r2074 2641b9e
Настройки программы : cabac=1 / ref=4 / deblock=1:-3:-3 / analyse=0x3:0x133 / me=umh / subme=9 / psy=1 / psy_rd=1.00:0.05 / mixed_ref=1 / me_range=16 / chroma_me=1 / trellis=2 / 8x8dct=1 / cqm=0 / deadzone=21,11 / fast_pskip=1 / chroma_qp_offset=-3 / threads=12 / sliced_threads=0 / nr=0 / decimate=1 / interlaced=0 / bluray_compat=0 / constrained_intra=0 / bframes=6 / b_pyramid=2 / b_adapt=2 / b_bias=0 / direct=3 / weightb=1 / open_gop=0 / weightp=2 / keyint=250 / keyint_min=23 / scenecut=40 / intra_refresh=0 / rc_lookahead=60 / rc=crf / mbtree=1 / crf=17.0 / qcomp=0.60 / qpmin=10 / qpmax=69 / qpstep=4 / vbv_maxrate=40000 / vbv_bufsize=40000 / crf_max=0.0 / nal_hrd=none / frame-packing=4 / ip_ratio=1.40 / aq=1:0.70
Язык : English
Default : Нет
Forced : Нет

Аудио #1
Идентификатор : 2
Формат : AC-3
Формат/Информация : Audio Coding 3
Расширение режима : CM (complete main)
Параметр Endianness формата : Big
Идентификатор кодека : A_AC3
Продолжительность : 49 м.
Вид битрейта : Постоянный
Битрейт : 448 Кбит/сек
Каналы : 2 канала
Расположение каналов : Front: L R
Частота : 48,0 КГц
Битовая глубина : 16 бит
Метод сжатия : С потерями
Размер потока : 158 Мбайт (2%)
Заголовок : AC3 [email protected] 448 kbps (AVO)профессиональный (одноголосый)
Язык : Russian
Default : Да
Forced : Нет

Аудио #2
Идентификатор : 3
Формат : AC-3
Формат/Информация : Audio Coding 3
Расширение режима : CM (complete main)
Параметр Endianness формата : Big
Идентификатор кодека : A_AC3
Продолжительность : 49 м.
Вид битрейта : Постоянный
Битрейт : 448 Кбит/сек
Каналы : 2 канала
Расположение каналов : Front: L R
Частота : 48,0 КГц
Битовая глубина : 16 бит
Метод сжатия : С потерями
Размер потока : 158 Мбайт (2%)
Заголовок : AC3 [email protected] 448 kbp (Original)
Язык : English
Default : Нет
Forced : Нет

Текст #1
Идентификатор : 4
Формат : UTF-8
Идентификатор кодека : S_TEXT/UTF8
Идентификатор кодека/Информация : UTF-8 Plain Text
Язык : Russian
Default : Да
Forced : Нет

Текст #2
Идентификатор : 5
Формат : UTF-8
Идентификатор кодека : S_TEXT/UTF8
Идентификатор кодека/Информация : UTF-8 Plain Text
Язык : English
Default : Нет
Forced : Нет

Меню
00:00:00.000 : en:00:00:00.000
00:06:21.047 : en:00:06:21.047
00:14:01.382 : en:00:14:01.382
00:20:29.019 : en:00:20:29.019
00:26:02.644 : en:00:26:02.644
00:32:00.210 : en:00:32:00.210
00:37:19.737 : en:00:37:19.737
00:42:41.809 : en:00:42:41.809
   
Торрент: Зарегистрирован [04 фев 2015, 19:27] За каждые 2 ГБ. аплоада (сидирования) этого торрента начисляется бонус: 0.001 Скачать торрент
Скачать торрент
О MediaGet
[ Размер 17.08 КБ / Просмотров 36 ]

Статус:
 
Приватный: Нет (DHT включён)
Размер: 6.58 ГБ (7 065 820 800 байт)
   
Хочешь стать частью команды MZ-Tracker?
Запишись
ТУТ
Аватара пользователя

Убийца клавиатуры
Убийца клавиатуры
 
Раздал: 12.57 ГБ
Скачал: 907.51 ГБ
Ратио: 0.017
Сообщения: 4358
Фото: 292
Зарегистрирован: 19 июн 2008, 23:00

  • Похожие торренты
    Ответы
    Просмотры
    Последнее сообщение

Вернуться в 3D Документальные фильмы

Кто сейчас на конференции

Зарегистрированные пользователи: Dievas

Ресурс не предоставляет электронные версии произведений, а занимается лишь коллекционированием и каталогизацией ссылок, присылаемых и публикуемых на форуме нашими читателями. Если вы являетесь правообладателем какого-либо представленного материала и не желаете чтобы ссылка на него находилась в нашем каталоге, свяжитесь с нами и мы незамедлительно удалим её. Файлы для обмена на трекере предоставлены пользователями сайта, и администрация не несёт ответственности за их содержание. Просьба не заливать файлы, защищенные авторскими правами, а также файлы нелегального содержания!
cron