Институт Роузвуд / The Institute (2017) BDRip 720p | iTunes скачать торрент

Мировая классика кино, Rip, Рипы, Зарубежные фильмы

Модератор: Модераторы видео

  • Статистика раздачи
Размер: 6.35 ГБ   |  Зарегистрирован: 05 авг 2017, 07:11   |   .torrent скачан: 3552 раз
Сидеров: 903  [ 0 байт/сек ]     Личеров: 157  [ 0 байт/сек ]  
Список файлов : Кто скачал : Раздают : Скачивают : Кто благодарил : История : Не раздающие : Запрашивали сидеров : Внешние трекеры 
  

Институт Роузвуд / The Institute (2017) BDRip 720p | iTunes

Сообщение Админ » 05 авг 2017, 07:11

Институт Роузвуд / The Institute

Страна: США
Производство: Campbell Grobman Films, Dark Rabbit Productions, Jeff Rice Films, Redwire Pictures
Год выпуска: 2017
Жанр: триллер
Продолжительность: 01:38:12

Режиссеры: Джеймс Франко, Памела Романовски
Авторы сценария: Адам Рэйджер, Мэтт Рэйджер

В ролях: Джеймс Франко, Элли Галлерани, Тим Б. Нельсон, Лори Сингер, Винсент Альвас, Памела Андерсон, Кармен Ардженциано, Лорен Б. Мосли, Эрик Робертс

Описание: Балтимор, XIX век. Изабель Портер глубоко опечалена ранней смертью родителей. Чтобы отвлечься от грустных мыслей, девушка решает отправиться на отдых в набирающий популярность институт Роузвуд. Позже она узнает, что за фасадом заведения, в котором молодым дамам оказывают психологическую помощь, скрывается нечто совершенно противоположное. Над пациентками ставятся жестокие псевдонаучные эксперименты по модификации личности и управлению сознанием...



Перевод: Профессиональный (полное дублирование) | iTunes
Субтитры: английские


Качество: BDRip 720p
Формат: МКV
Видео кодек: AVC
Аудио кодек: АС3
Видео: 1280x720 (16:9), 23.976 fps, MPEG-4 AVC ~8 250 kbps avg
Аудио №1: 48 kHz, AC3 Dolby Digital, 3/2 (L,C,R,l,r) + LFE ch, ~384 kbps | RUS
Аудио №2: 48 kHz, AC3 Dolby Digital, 3/2 (L,C,R,l,r) + LFE ch, ~640 kbps | ENG
Формат субтитров: UTF-8 Plain Text

Дата премьеры (мир): 3 марта 2017
Дата премьеры (РФ): 6 июля 2017, «Кинологистика»



General
Полное имя : The.Institute.2017.D.BDRip.720p.mkv
Формат : Matroska
Версия формата : Version 2
Размер файла : 6,35 Гбайт
Продолжительность : 1 ч. 38 м.
Общий поток : 9254 Кбит/сек
Дата кодирования : UTC 2017-08-01 22:39:12
Программа кодирования : mkvmerge v7.8.0 ('River Man') 32bit built on Apr 3 2015 12:11:22
Библиотека кодирования : libebml v1.3.1 + libmatroska v1.4.2

Видео
Идентификатор : 1
Формат : AVC
Формат/Информация : Advanced Video Codec
Профиль формата : [email protected]
Параметр CABAC формата : Да
Параметр ReFrames формата : 9 кадров
Идентификатор кодека : V_MPEG4/ISO/AVC
Продолжительность : 1 ч. 38 м.
Битрейт : 8250 Кбит/сек
Ширина : 1280 пикселей
Высота : 720 пикселей
Соотношение сторон : 16:9
Режим частоты кадров : Постоянный
Частота кадров : 23,976 (24000/1001) кадра/сек
Цветовое пространство : YUV
Субдискретизация насыщенности : 4:2:0
Битовая глубина : 8 бит
Тип развёртки : Прогрессивная
Бит/(Пиксели*Кадры) : 0.373
Размер потока : 5,52 Гбайт (87%)
Библиотека кодирования : x264 core 142 r2431+42 c69a006 tMod [[email protected] X86_64]
Настройки программы : cabac=1 / ref=9 / deblock=1:-3:-3 / analyse=0x3:0x133 / me=umh / subme=11 / psy=1 / fade_compensate=0.00 / psy_rd=1.05:1.05 / mixed_ref=1 / me_range=48 / chroma_me=1 / trellis=2 / 8x8dct=1 / cqm=0 / deadzone=21,11 / fast_pskip=0 / chroma_qp_offset=-4 / threads=16 / lookahead_threads=2 / sliced_threads=0 / nr=0 / decimate=0 / interlaced=0 / bluray_compat=0 / constrained_intra=0 / fgo=0 / bframes=8 / b_pyramid=2 / b_adapt=2 / b_bias=0 / direct=3 / weightb=1 / open_gop=0 / weightp=2 / keyint=240 / keyint_min=23 / scenecut=40 / intra_refresh=0 / rc_lookahead=100 / rc=2pass / mbtree=0 / bitrate=8250 / ratetol=1.0 / qcomp=0.80 / qpmin=0:0:0 / qpmax=69:69:69 / qpstep=4 / cplxblur=20.0 / qblur=0.5 / vbv_maxrate=40000 / vbv_bufsize=30000 / nal_hrd=none / filler=0 / ip_ratio=1.30 / pb_ratio=1.20 / aq=2:0.68 / aq-sensitivity=10.00 / aq-factor=1.00:1.00:1.00 / aq2=0 / aq3=0
Язык : English
Default : Да
Forced : Нет
Цветовой диапазон : Limited
Основные цвета : BT.709
Характеристики трансфера : BT.709
Коэффициенты матрицы : BT.709

Аудио #1
Идентификатор : 2
Формат : AC-3
Формат/Информация : Audio Coding 3
Параметр Endianness формата : Big
Идентификатор кодека : A_AC3
Продолжительность : 1 ч. 38 м.
Вид битрейта : Постоянный
Битрейт : 384 Кбит/сек
Каналы : 6 каналов
Расположение каналов : Front: L C R, Side: L R, LFE
Частота : 48,0 КГц
Частота кадров : 31,250 кадров/сек (1536 spf)
Битовая глубина : 16 бит
Метод сжатия : С потерями
Размер потока : 270 Мбайт (4%)
Заголовок : iTunes
Язык : Russian
Default : Да
Forced : Нет

Аудио #2
Идентификатор : 3
Формат : AC-3
Формат/Информация : Audio Coding 3
Параметр Endianness формата : Big
Идентификатор кодека : A_AC3
Продолжительность : 1 ч. 38 м.
Вид битрейта : Постоянный
Битрейт : 640 Кбит/сек
Каналы : 6 каналов
Расположение каналов : Front: L C R, Side: L R, LFE
Частота : 48,0 КГц
Частота кадров : 31,250 кадров/сек (1536 spf)
Битовая глубина : 16 бит
Метод сжатия : С потерями
Размер потока : 450 Мбайт (7%)
Язык : English
Default : Нет
Forced : Нет

Текст
Идентификатор : 4
Формат : UTF-8
Идентификатор кодека : S_TEXT/UTF8
Идентификатор кодека/Информация : UTF-8 Plain Text
Язык : English
Default : Нет
Forced : Нет

Меню
00:00:00.000 : en:Chapter 01
00:04:45.868 : en:Chapter 02
00:10:57.657 : en:Chapter 03
00:19:39.553 : en:Chapter 04
00:24:28.258 : en:Chapter 05
00:30:51.933 : en:Chapter 06
00:35:59.282 : en:Chapter 07
00:41:34.408 : en:Chapter 08
00:47:06.698 : en:Chapter 09
00:54:04.991 : en:Chapter 10
01:01:34.982 : en:Chapter 11
01:07:44.101 : en:Chapter 12
01:14:11.488 : en:Chapter 13
01:21:49.487 : en:Chapter 14
01:26:57.462 : en:Chapter 15
01:33:43.993 : en:Chapter 16
01:38:11.969 : en:Chapter 17
   
Торрент: Зарегистрирован [05 авг 2017, 07:11] За каждые 2 ГБ. аплоада (сидирования) этого торрента начисляется бонус: 0.001 Скачать торрент
Скачать торрент
О MediaGet
[ Размер 32.63 КБ / Просмотров 137 ]

Статус:
 
Приватный: Нет (DHT включён)
Размер: 6.35 ГБ (6 815 493 080 байт)
   
Аватара пользователя

Администратор
Администратор
 
Раздал: 2.33 ПБ
Скачал: 1.02 ПБ
Ратио: 2.281
Сообщения: 3719
Зарегистрирован: 07 май 2010, 17:29
Medals: 1
Лучший релиз за месяц (1)
  • Личное сообщение
  • ICQ

  • Похожие торренты
    Ответы
    Просмотры
    Последнее сообщение

Вернуться в Зарубежные фильмы (Rip's)

Кто сейчас на конференции

Зарегистрированные пользователи: нет зарегистрированных пользователей

Ресурс не предоставляет электронные версии произведений, а занимается лишь коллекционированием и каталогизацией ссылок, присылаемых и публикуемых на форуме нашими читателями. Если вы являетесь правообладателем какого-либо представленного материала и не желаете чтобы ссылка на него находилась в нашем каталоге, свяжитесь с нами и мы незамедлительно удалим её. Файлы для обмена на трекере предоставлены пользователями сайта, и администрация не несёт ответственности за их содержание. Просьба не заливать файлы, защищенные авторскими правами, а также файлы нелегального содержания!
cron