Анна Каренина. История Вронского (2017) WEB-DLRip AVC от Generalfilm | iTunes скачать торрент

Мировая классика кино, Rip, Рипы, Зарубежные фильмы

Модератор: Модераторы видео

  • Статистика раздачи
Размер: 2.57 ГБ   |  Зарегистрирован: 18 июл 2017, 03:48   |   .torrent скачан: 781 раз
Сидеров: 176  [ 0 байт/сек ]     Личеров: 9  [ 0 байт/сек ]  
Список файлов : Кто скачал : Раздают : Скачивают : Кто благодарил : История : Не раздающие : Запрашивали сидеров : Внешние трекеры 
  

Анна Каренина. История Вронского (2017) WEB-DLRip AVC от Generalfilm | iTunes

Сообщение Админ » 18 июл 2017, 03:48

Информация о фильме
Название: Анна Каренина. История Вронского
Год выпуска: 2017
Страна: Россия
Жанр: драма

Перевод: оригинал [iTunes]
Продолжительность: 02:12:14

Режиссер: Карен Шахназаров
В ролях: Елизавета Боярская (Анна Каренина), Максим Матвеев (Алексей Вронский), Виталий Кищенко (Каренин), Кирилл Гребенщиков (Сергей Каренин), Макар Михалкин, Татьяна Лютаева (графиня Вронская), Иван Колесников (Облонский), Анастасия Макеева (Бетси), София Сун (китайская девочка), Дмитрий Гусев (Лаврентий), Анна Синякина (Аннушка), Юрий Беляев (император Александр II)


Описание:
1904 год. Русско-японская война. Маньчжурия. Российский военный госпиталь, отступая, занимает полузаброшенную китайскую деревню. Начальник госпиталя, Сергей Каренин, узнаёт, что раненый офицер, которого он оперирует, - граф Вронский, - тот, кто погубил его мать, Анну Каренину, и послужил косвенной причиной смерти отца. Не питая иллюзий и не ожидая ответа, Каренин всё же идёт к Вронскому и задаёт вопрос, который мучил его всю жизнь: что заставило его мать переступить черту? Граф Вронский, в свою очередь, узнаёт, что врач - тот самый Сережа Каренин. После некоторых сомнений граф соглашается поведать историю своей трагической любви к Анне Карениной, заметив, что люди помнят лишь то, что им удобно помнить.

Рейтинг:


Качество: WEB-DLRip-AVC
Формат: MKV
Видео: AVC, 1024x576 (16:9), 2400 kbps, 25 fps, 0,163 bpp
Аудио: русский / AC3 / 5.1 / 48 kHz / 384 kbps / ||
Навигация по главам: есть
Семпл


Релиз от:



General
Unique ID : 240530524618250259006374299406396515808 (0xB4F47E7623615A3587552700281F65E0)
Complete name : E:Anna.Karenina.The.Story.of.Vronsky.2O17.WEB-DLRip-AVC.by.White Smoke.R.G.Generalfilm.mkv
Format : Matroska
Format version : Version 4 / Version 2
File size : 2.57 GiB
Duration : 2 h 12 min
Overall bit rate : 2 786 kb/s
Movie name : Anna.Karenina.The.Story.of.Vronsky.2O17.WEB-DLRip-AVC.by.White Smoke.R.G.Generalfilm.mkv
Encoded date : UTC 2017-07-17 06:18:57
Writing application : mkvmerge v6.8.0 ('Theme for Great Cities') 64bit built on Mar 2 2014 21:34:26
Writing library : libebml v1.3.0 + libmatroska v1.4.1

Video
ID : 1
Format : AVC
Format/Info : Advanced Video Codec
Format profile : [email protected]
Format settings, CABAC : Yes
Format settings, ReFrames : 12 frames
Codec ID : V_MPEG4/ISO/AVC
Duration : 2 h 12 min
Bit rate : 2 400 kb/s
Width : 1 024 pixels
Height : 576 pixels
Display aspect ratio : 16:9
Frame rate mode : Constant
Frame rate : 25.000 FPS
Color space : YUV
Chroma subsampling : 4:2:0
Bit depth : 8 bits
Scan type : Progressive
Bits/(Pixel*Frame) : 0.163
Stream size : 2.17 GiB (84%)
Writing library : x264 core 148 r2638 7599210
Encoding settings : cabac=1 / ref=12 / deblock=1:-2:-1 / analyse=0x3:0x113 / me=umh / subme=11 / psy=1 / psy_rd=1.00:0.14 / mixed_ref=1 / me_range=32 / chroma_me=1 / trellis=2 / 8x8dct=1 / cqm=0 / deadzone=21,11 / fast_pskip=0 / chroma_qp_offset=-5 / threads=6 / lookahead_threads=1 / sliced_threads=0 / nr=0 / decimate=0 / interlaced=0 / bluray_compat=0 / constrained_intra=0 / bframes=12 / b_pyramid=2 / b_adapt=2 / b_bias=0 / direct=1 / weightb=0 / open_gop=0 / weightp=2 / keyint=250 / keyint_min=25 / scenecut=40 / intra_refresh=0 / rc_lookahead=40 / rc=2pass / mbtree=1 / bitrate=2400 / ratetol=1.0 / qcomp=0.70 / qpmin=0 / qpmax=69 / qpstep=4 / cplxblur=20.0 / qblur=0.5 / vbv_maxrate=50000 / vbv_bufsize=65500 / nal_hrd=none / filler=0 / ip_ratio=1.40 / aq=1:1.00
Default : Yes
Forced : No

Audio
ID : 2
Format : AC-3
Format/Info : Audio Coding 3
Mode extension : CM (complete main)
Format settings, Endianness : Big
Codec ID : A_AC3
Duration : 2 h 12 min
Bit rate mode : Constant
Bit rate : 384 kb/s
Channel(s) : 6 channels
Channel positions : Front: L C R, Side: L R, LFE
Sampling rate : 48.0 kHz
Frame rate : 31.250 FPS (1536 spf)
Compression mode : Lossy
Stream size : 363 MiB (14%)
Title : iTunes
Language : Russian
Default : Yes
Forced : No

Menu
00:00:00.000 : en:Chapter 01
00:07:03.640 : en:Chapter 02
00:15:05.680 : en:Chapter 03
00:19:29.920 : en:Chapter 04
00:27:05.640 : en:Chapter 05
00:34:18.120 : en:Chapter 06
00:38:05.400 : en:Chapter 07
00:45:10.680 : en:Chapter 08
00:51:34.000 : en:Chapter 09
00:57:14.680 : en:Chapter 10
01:02:48.800 : en:Chapter 11
01:08:07.560 : en:Chapter 12
01:12:42.400 : en:Chapter 13
01:18:46.640 : en:Chapter 14
01:24:15.920 : en:Chapter 15
01:29:57.520 : en:Chapter 16
01:36:48.320 : en:Chapter 17
01:44:09.760 : en:Chapter 18
01:49:36.840 : en:Chapter 19
01:57:45.640 : en:Chapter 20
02:03:38.960 : en:Chapter 21


   
Торрент: Зарегистрирован [18 июл 2017, 03:48] Скачать торрент
Скачать торрент
О MediaGet
[ Размер 13.9 КБ / Просмотров 115 ]

Статус:
 
Приватный: Нет (DHT включён)
Размер: 2.57 ГБ (2 763 156 069 байт)
   
Аватара пользователя

Администратор
Администратор
 
Раздал: 2.33 ПБ
Скачал: 1.02 ПБ
Ратио: 2.281
Сообщения: 3723
Зарегистрирован: 07 май 2010, 17:29
Medals: 1
Лучший релиз за месяц (1)
  • Личное сообщение
  • ICQ

  • Похожие торренты
    Ответы
    Просмотры
    Последнее сообщение

Вернуться в Зарубежные фильмы (Rip's)

Кто сейчас на конференции

Зарегистрированные пользователи: bigcatwar

Ресурс не предоставляет электронные версии произведений, а занимается лишь коллекционированием и каталогизацией ссылок, присылаемых и публикуемых на форуме нашими читателями. Если вы являетесь правообладателем какого-либо представленного материала и не желаете чтобы ссылка на него находилась в нашем каталоге, свяжитесь с нами и мы незамедлительно удалим её. Файлы для обмена на трекере предоставлены пользователями сайта, и администрация не несёт ответственности за их содержание. Просьба не заливать файлы, защищенные авторскими правами, а также файлы нелегального содержания!
cron