Уйти красиво / Going in Style (2017) WEB-DL 1080p от ExKinoRay | iTunes скачать торрент

Мировая классика кино, Rip, Рипы, Зарубежные фильмы

Модератор: Модераторы видео

  • Статистика раздачи
Размер: 3.59 ГБ   |  Зарегистрирован: 18 июл 2017, 03:46   |   .torrent скачан: 0 раз
Сидеров: 0  [ 0 байт/сек ]     Личеров: 0  [ 0 байт/сек ]  
Список файлов : Кто скачал : Раздают : Скачивают : Кто благодарил : История : Не раздающие : Запрашивали сидеров : Внешние трекеры 
  

Уйти красиво / Going in Style (2017) WEB-DL 1080p от ExKinoRay | iTunes

Сообщение Админ » 18 июл 2017, 03:46

Информация о фильме
Название: Уйти красиво
Оригинальное название: Going in Style
Год выпуска: 2017
Жанр: Комедия, криминал
Режиссер: Зак Брафф
В ролях: Джои Кинг, Морган Фримен, Энн-Маргрет, Майкл Кейн, Алан Аркин, Кристофер Ллойд, Питер Серафинович, Мэтт Диллон, Шиван Фэллон, Джон Ортис
Описание: Старые друзья Вилли, Джо и Эла, несмотря на свой пенсионный возраст, впервые в жизни решают свернуть с праведного пути, чтобы сохранить свои пенсионные накопления.


Страна: США
Студия: Metro-Goldwyn-Mayer (MGM), New Line Cinema, Warner Bros. Pictures
Продолжительность: 01:36:23
Перевод: Дублированный | iTunes
Субтитры: Русские (forced, full), английские

Файл
Формат: MKV
Качество: WEB-DL 1080p
Видео: AVC, 1912х792 (2.40:1), 4565 kbps, 23,976 fps
Аудио1: 48 kHz, AC3, 5.1, 384 Kbps | RUS |
Аудио2: 48 kHz, AC3, 5.1, 384 Kbps | ENG |
Навигация по главам: есть
General
Unique ID : 199072410124815970213764553037866113451 (0x95C3F39A7D4CD29E828C7F96296899AB)
Complete name : C:UsersbattiDesktopGoing.in.Style.2017.D.WEB-DL.1080p.ExKinoRay.mkv
Format : Matroska
Format version : Version 4 / Version 2
File size : 3.59 GiB
Duration : 1 h 36 min
Overall bit rate : 5 335 kb/s
Movie name : GOINSTYLE_WEB_DL_1080p-BLUEBIRD
Encoded date : UTC 2017-07-11 20:22:53
Writing application : mkvmerge v13.0.0 ('The Juggler') 64bit
Writing library : libebml v1.3.4 + libmatroska v1.4.5
Video
ID : 1
Format : AVC
Format/Info : Advanced Video Codec
Format profile : [email protected]
Format settings, CABAC : Yes
Format settings, ReFrames : 5 frames
Codec ID : V_MPEG4/ISO/AVC
Duration : 1 h 36 min
Bit rate : 4 565 kb/s
Width : 1 912 pixels
Height : 792 pixels
Display aspect ratio : 2.40:1
Frame rate mode : Constant
Frame rate : 23.976 (23976/1000) FPS
Color space : YUV
Chroma subsampling : 4:2:0
Bit depth : 8 bits
Scan type : Progressive
Bits/(Pixel*Frame) : 0.126
Stream size : 3.07 GiB (86%)
Language : English
Default : Yes
Forced : No
Color range : Limited
Color primaries : BT.709
Transfer characteristics : BT.709
Matrix coefficients : BT.709
Audio #1
ID : 2
Format : AC-3
Format/Info : Audio Coding 3
Format settings, Endianness : Big
Codec ID : A_AC3
Duration : 1 h 36 min
Bit rate mode : Constant
Bit rate : 384 kb/s
Channel(s) : 6 channels
Channel positions : Front: L C R, Side: L R, LFE
Sampling rate : 48.0 kHz
Frame rate : 31.250 FPS (1536 spf)
Bit depth : 16 bits
Compression mode : Lossy
Stream size : 265 MiB (7%)
Title : iTunes
Language : Russian
Service kind : Complete Main
Default : Yes
Forced : No
Audio #2
ID : 3
Format : AC-3
Format/Info : Audio Coding 3
Format settings, Endianness : Big
Codec ID : A_AC3
Duration : 1 h 36 min
Bit rate mode : Constant
Bit rate : 384 kb/s
Channel(s) : 6 channels
Channel positions : Front: L C R, Side: L R, LFE
Sampling rate : 48.0 kHz
Frame rate : 31.250 FPS (1536 spf)
Bit depth : 16 bits
Compression mode : Lossy
Stream size : 265 MiB (7%)
Title : Original
Language : English
Service kind : Complete Main
Default : No
Forced : No
Text #1
ID : 4
Format : UTF-8
Codec ID : S_TEXT/UTF8
Codec ID/Info : UTF-8 Plain Text
Duration : 1 h 25 min
Bit rate : 4 b/s
Count of elements : 64
Stream size : 2.55 KiB (0%)
Title : Forced
Language : Russian
Default : Yes
Forced : No
Text #2
ID : 5
Format : UTF-8
Codec ID : S_TEXT/UTF8
Codec ID/Info : UTF-8 Plain Text
Duration : 1 h 35 min
Bit rate : 109 b/s
Count of elements : 1484
Stream size : 76.1 KiB (0%)
Title : Full
Language : Russian
Default : No
Forced : No
Text #3
ID : 6
Format : UTF-8
Codec ID : S_TEXT/UTF8
Codec ID/Info : UTF-8 Plain Text
Duration : 1 h 29 min
Bit rate : 68 b/s
Count of elements : 1564
Stream size : 44.5 KiB (0%)
Title : Full
Language : English
Default : No
Forced : No
Menu
00:00:00.000 : en:1
00:10:03.000 : en:2
00:20:02.000 : en:3
00:28:28.000 : en:4
00:39:42.000 : en:5
00:50:58.000 : en:6
00:58:32.000 : en:7
01:09:50.000 : en:8
01:22:05.000 : en:9
01:30:31.000 : en:10




Релиз от:

Автор релиза:
   
Торрент: Зарегистрирован [18 июл 2017, 03:46] Скачать торрент
Скачать торрент
О MediaGet
[ Размер 18.94 КБ / Просмотров 24 ]

Статус:
 
Приватный: Нет (DHT включён)
Размер: 3.59 ГБ (3 857 290 866 байт)
   
Аватара пользователя

Администратор
Администратор
 
Раздал: 2.33 ПБ
Скачал: 1.02 ПБ
Ратио: 2.281
Сообщения: 3695
Зарегистрирован: 07 май 2010, 17:29
Medals: 1
Лучший релиз за месяц (1)
  • Личное сообщение
  • ICQ

  • Похожие торренты
    Ответы
    Просмотры
    Последнее сообщение

Вернуться в Зарубежные фильмы (Rip's)

Кто сейчас на конференции

Зарегистрированные пользователи: fas28

Ресурс не предоставляет электронные версии произведений, а занимается лишь коллекционированием и каталогизацией ссылок, присылаемых и публикуемых на форуме нашими читателями. Если вы являетесь правообладателем какого-либо представленного материала и не желаете чтобы ссылка на него находилась в нашем каталоге, свяжитесь с нами и мы незамедлительно удалим её. Файлы для обмена на трекере предоставлены пользователями сайта, и администрация не несёт ответственности за их содержание. Просьба не заливать файлы, защищенные авторскими правами, а также файлы нелегального содержания!
cron