SEX DOLL / Sex Doll (2016) HDRip-AVC ImperiaFilm | iTunes скачать торрент

Мировая классика кино, Rip, Рипы, Зарубежные фильмы

Модератор: Модераторы видео

  • Статистика раздачи
Размер: 744.47 МБ   |  Зарегистрирован: 09 июл 2017, 14:45   |   .torrent скачан: 371 раз
Сидеров: 40  [ 0 байт/сек ]     Личеров: 17  [ 0 байт/сек ]  
Список файлов : Кто скачал : Раздают : Скачивают : Кто благодарил : История : Не раздающие : Запрашивали сидеров : Внешние трекеры 
  

SEX DOLL / Sex Doll (2016) HDRip-AVC ImperiaFilm | iTunes

Сообщение Админ » 09 июл 2017, 14:45

Информация о фильме
Название: SEX DOLL
Оригинальное название: Sex Doll
Год выхода: 2016
Жанр: триллер
Режиссер: Сильви Веред
В ролях: Афсиа Эрзи, Эш Стаймест, Кароль Роше, Поль Ами, Айра Мэкс, Линдси Карамох, Мариам Джельхели, Джереми Беннетт, Саймон Киллик, Уэйн Сванн

О фильме:
Место действия современной сказки о любви — темная сторона Лондона, своеобразный мир высококлассных девушек легкого поведения. Вирджиния — молодая, невероятно красивая и независимая француженка. Трудится она много и самоотверженно: проводит дни и ночи с состоятельными мужчинами за большие деньги.

Вирджиния сумела заслужить уважение в своей совершенно аморальной среде. Карьера шла в гору, пока она не встретила его. Руперт — юный и дерзкий. Он по-настоящему влюбляется, закрыв глаза на сомнительную репутацию новой подруги. Его цель — спасти Вирджинию от унижения, опасности и презрения, ставших для нее нормой.


Страна: Великобритания, Франция
Студия: Les Films du Veyrier, Bureau, The, Lipsync
Продолжительность: 01:42:50
Перевод: Профессиональный (многоголосый, закадровый) | iTunes

Файл
Кодек: AVC
Качество: HDRip-AVC
Видео: 768x320, 940 kbps, 23,976 fps, 0,160 Bits/(Pixel*Frame)
Звук: AAC, 48 kHz, 2 ch, 72 kbps
Субтитры: Нет

Общее
Уникальный идентификатор : 176754391313160968598762748213970067103 (0x84F9A85221220B30A9596D887357DE9F)
Полное имя : F:Sex.Doll.2016.HDRip-AVC.by_Bathory.mkv
Формат : Matroska
Версия формата : Version 2
Размер файла : 744 Мбайт
Продолжительность : 1 ч. 42 м.
Общий поток : 1012 Кбит/сек
Дата кодирования : UTC 2017-07-04 22:14:47
Программа кодирования : mkvmerge v13.0.0 ('The Juggler') 64bit
Библиотека кодирования : libebml v1.3.4 + libmatroska v1.4.5

Видео
Идентификатор : 1
Формат : AVC
Формат/Информация : Advanced Video Codec
Профиль формата : [email protected]
Параметр CABAC формата : Да
Параметр ReFrames формата : 14 кадров
Идентификатор кодека : V_MPEG4/ISO/AVC
Продолжительность : 1 ч. 42 м.
Битрейт : 940 Кбит/сек
Ширина : 768 пикселей
Высота : 320 пикселей
Соотношение сторон : 2,40:1
Режим частоты кадров : Постоянный
Частота кадров : 23,976 (24000/1001) кадра/сек
Цветовое пространство : YUV
Субдискретизация насыщенности : 4:2:0
Битовая глубина : 8 бит
Тип развёртки : Прогрессивная
Бит/(Пиксели*Кадры) : 0.160
Размер потока : 690 Мбайт (93%)
Библиотека кодирования : x264 core 152 r2851 ba24899
Настройки программы : cabac=1 / ref=14 / deblock=1:-2:-2 / analyse=0x3:0x113 / me=umh / subme=11 / psy=1 / psy_rd=1.10:0.10 / mixed_ref=1 / me_range=32 / chroma_me=1 / trellis=2 / 8x8dct=1 / cqm=0 / deadzone=21,11 / fast_pskip=0 / chroma_qp_offset=-3 / threads=10 / lookahead_threads=2 / sliced_threads=0 / nr=0 / decimate=0 / interlaced=0 / bluray_compat=0 / constrained_intra=0 / bframes=16 / b_pyramid=2 / b_adapt=2 / b_bias=0 / direct=3 / weightb=1 / open_gop=0 / weightp=2 / keyint=240 / keyint_min=23 / scenecut=0 / intra_refresh=0 / rc_lookahead=60 / rc=2pass / mbtree=1 / bitrate=940 / ratetol=1.0 / qcomp=0.60 / qpmin=0 / qpmax=51 / qpstep=4 / cplxblur=15.0 / qblur=0.5 / vbv_maxrate=50000 / vbv_bufsize=62500 / nal_hrd=none / filler=0 / ip_ratio=1.40 / aq=2:1.00
Default : Да
Forced : Нет

Аудио
Идентификатор : 2
Формат : AAC
Формат/Информация : Advanced Audio Codec
Профиль формата : HE-AAC / LC
Идентификатор кодека : A_AAC
Продолжительность : 1 ч. 42 м.
Битрейт : 72,0 Кбит/сек
Каналы : 2 канала
Расположение каналов : Front: L R
Частота : 48,0 КГц / 24,0 КГц
Частота кадров : 23,438 кадра/сек (1024 spf)
Метод сжатия : С потерями
Задержка видео : 31 мс.
Размер потока : 53,0 Мбайт (7%)
Язык : Russian
Default : Да
Forced : Нет




Релиз от:

Автор рипа: _Bathory_
   
Торрент: Зарегистрирован [09 июл 2017, 14:45] Скачать торрент
Скачать торрент
О MediaGet
[ Размер 15.47 КБ / Просмотров 80 ]

Статус:
 
Приватный: Нет (DHT включён)
Размер: 744.47 МБ (780 633 240 байт)
   
Аватара пользователя

Администратор
Администратор
 
Раздал: 2.33 ПБ
Скачал: 1.02 ПБ
Ратио: 2.281
Сообщения: 3723
Зарегистрирован: 07 май 2010, 17:29
Medals: 1
Лучший релиз за месяц (1)
  • Личное сообщение
  • ICQ

  • Похожие торренты
    Ответы
    Просмотры
    Последнее сообщение

Вернуться в Зарубежные фильмы (Rip's)

Кто сейчас на конференции

Зарегистрированные пользователи: bigcatwar

Ресурс не предоставляет электронные версии произведений, а занимается лишь коллекционированием и каталогизацией ссылок, присылаемых и публикуемых на форуме нашими читателями. Если вы являетесь правообладателем какого-либо представленного материала и не желаете чтобы ссылка на него находилась в нашем каталоге, свяжитесь с нами и мы незамедлительно удалим её. Файлы для обмена на трекере предоставлены пользователями сайта, и администрация не несёт ответственности за их содержание. Просьба не заливать файлы, защищенные авторскими правами, а также файлы нелегального содержания!
cron