Призрак в доспехах / Ghost in the Shell (2017) WEB-DLRip-AVC от ExKinoRay | iTunes скачать торрент

Мировая классика кино, Rip, Рипы, Зарубежные фильмы

Модератор: Модераторы видео

  • Статистика раздачи
Размер: 1.45 ГБ   |  Зарегистрирован: 09 июл 2017, 14:44   |   .torrent скачан: 0 раз
Сидеров: 265  [ 0 байт/сек ]     Личеров: 2  [ 0 байт/сек ]  
Список файлов : Кто скачал : Раздают : Скачивают : Кто благодарил : История : Не раздающие : Запрашивали сидеров : Внешние трекеры 
  

Призрак в доспехах / Ghost in the Shell (2017) WEB-DLRip-AVC от ExKinoRay | iTunes

Сообщение Админ » 09 июл 2017, 14:44

Информация о фильме
Название: Призрак в доспехах
Оригинальное название: Ghost in the Shell
Год выпуска: 2017
Жанр: Фантастика, боевик, триллер, драма, криминал, детектив
Режиссер: Руперт Сандерс
В ролях: Скарлетт Йоханссон, Йохан Филип Асбек, Такеши Китано, Жюльетт Бинош, Майкл Питт, Чин Хань, Дануся Самал, Ласарус Ратуэре, Ютака Идзумихара, Таванда Маниймо
Описание: 2029 год, майор Мотоко Кусанаги - киборг, возглавляющая спецподразделение по борьбе с высокотехнологичными преступлениями, должна вычислить хакера по прозвищу Кукловод, который начал вмешиваться в политику и безопасность страны.

Фильм является адаптацией одноименной японской манги 1992 года.




Страна: США
Студия: Arad Productions, DreamWorks, Grosvenor Park Productions
Продолжительность: 01:47:24
Перевод: Дублированный | iTunes
Субтитры: Русские (forced, full), украинские (full), английские (Full)

Файл
Формат: MKV
Качество: WEB-DLRip-AVC
Видео: MPEG-4 AVC, 720x404 (16:9), 1546 Kbit/s, 23.976 fps, 0,222 bpp
Звук:
Аудио: 48 kHz, AC3, 5.1, 384 Kbps | iTunes | RUS

Без английского хардсаба!

Навигация по главам: есть
General
Unique ID : 227654648009525751644855689057617808990 (0xAB44B0BB4E1769EAB73E0538916F8E5E)
Complete name : D:Ghost.in.the.Shell.2017.D.WEB-DLRip.AVC.1.45.ExKinoRay.mkv
Format : Matroska
Format version : Version 2
File size : 1.45 GiB
Duration : 1 h 47 min
Overall bit rate : 1 930 kb/s
Movie name : Ghost in the Shell (2017) from ExKinoRay
Encoded date : UTC 2017-07-07 01:55:38
Writing application : mkvmerge v5.6.0 ('Kenya Kane') built on May 27 2012 16:44:04
Writing library : libebml v1.2.3 + libmatroska v1.3.0

Video
ID : 1
Format : AVC
Format/Info : Advanced Video Codec
Format profile : [email protected]
Format settings, CABAC : Yes
Format settings, ReFrames : 10 frames
Codec ID : V_MPEG4/ISO/AVC
Duration : 1 h 47 min
Bit rate : 1 546 kb/s
Width : 720 pixels
Height : 404 pixels
Display aspect ratio : 16:9
Frame rate mode : Constant
Frame rate : 23.976 (24000/1001) FPS
Original frame rate : 23.976 (23976/1000) FPS
Color space : YUV
Chroma subsampling : 4:2:0
Bit depth : 8 bits
Scan type : Progressive
Bits/(Pixel*Frame) : 0.222
Stream size : 1.13 GiB (78%)
Title : Enigma
Writing library : x264 core 144 r2525 40bb568
Encoding settings : cabac=1 / ref=10 / deblock=1:-2:-2 / analyse=0x3:0x113 / me=umh / subme=10 / psy=1 / psy_rd=1.02:0.07 / mixed_ref=1 / me_range=32 / chroma_me=1 / trellis=2 / 8x8dct=1 / cqm=0 / deadzone=21,11 / fast_pskip=1 / chroma_qp_offset=-3 / threads=12 / lookahead_threads=3 / sliced_threads=0 / nr=0 / decimate=0 / interlaced=0 / bluray_compat=0 / constrained_intra=0 / bframes=10 / b_pyramid=2 / b_adapt=2 / b_bias=0 / direct=3 / weightb=1 / open_gop=0 / weightp=2 / keyint=240 / keyint_min=23 / scenecut=40 / intra_refresh=0 / rc_lookahead=40 / rc=2pass / mbtree=0 / bitrate=1546 / ratetol=1.0 / qcomp=0.60 / qpmin=0 / qpmax=51 / qpstep=4 / cplxblur=20.0 / qblur=0.5 / vbv_maxrate=50000 / vbv_bufsize=62500 / nal_hrd=none / filler=0 / ip_ratio=1.40 / pb_ratio=1.30 / aq=1:1.00
Default : Yes
Forced : No
Color range : Limited
Color primaries : BT.709
Transfer characteristics : BT.709
Matrix coefficients : BT.709

Audio
ID : 2
Format : AC-3
Format/Info : Audio Coding 3
Mode extension : CM (complete main)
Format settings, Endianness : Big
Codec ID : A_AC3
Duration : 1 h 47 min
Bit rate mode : Constant
Bit rate : 384 kb/s
Channel(s) : 6 channels
Channel positions : Front: L C R, Side: L R, LFE
Sampling rate : 48.0 kHz
Frame rate : 31.250 FPS (1536 spf)
Compression mode : Lossy
Stream size : 295 MiB (20%)
Title : iTunes
Language : Russian
Default : Yes
Forced : No

Text #1
ID : 3
Format : UTF-8
Codec ID : S_TEXT/UTF8
Codec ID/Info : UTF-8 Plain Text
Title : Forced
Language : Russian
Default : Yes
Forced : Yes

Text #2
ID : 4
Format : UTF-8
Codec ID : S_TEXT/UTF8
Codec ID/Info : UTF-8 Plain Text
Title : Full
Language : Russian
Default : No
Forced : No

Text #3
ID : 5
Format : UTF-8
Codec ID : S_TEXT/UTF8
Codec ID/Info : UTF-8 Plain Text
Title : Full
Language : Ukrainian
Default : No
Forced : No

Text #4
ID : 6
Format : UTF-8
Codec ID : S_TEXT/UTF8
Codec ID/Info : UTF-8 Plain Text
Title : Full
Language : English
Default : No
Forced : No

Menu
00:00:00.000 : en:1
00:08:08.000 : en:2
00:14:38.000 : en:3
00:21:24.000 : en:4
00:28:00.000 : en:5
00:34:10.000 : en:6
00:39:24.000 : en:7
00:43:54.000 : en:8
00:51:45.000 : en:9
00:55:13.000 : en:10
01:01:02.000 : en:11
01:07:43.000 : en:12
01:14:31.000 : en:13
01:20:26.000 : en:14
01:27:40.000 : en:15
01:33:34.000 : en:16
01:37:53.000 : en:17




Релиз от:

Автор релиза:
   
Торрент: Зарегистрирован [09 июл 2017, 14:44] Скачать торрент
Скачать торрент
О MediaGet
[ Размер 15.5 КБ / Просмотров 140 ]

Статус:
 
Приватный: Нет (DHT включён)
Размер: 1.45 ГБ (1 554 800 213 байт)
   
Аватара пользователя

Администратор
Администратор
 
Раздал: 2.33 ПБ
Скачал: 1.02 ПБ
Ратио: 2.281
Сообщения: 3719
Зарегистрирован: 07 май 2010, 17:29
Medals: 1
Лучший релиз за месяц (1)
  • Личное сообщение
  • ICQ

  • Похожие торренты
    Ответы
    Просмотры
    Последнее сообщение

Вернуться в Зарубежные фильмы (Rip's)

Кто сейчас на конференции

Зарегистрированные пользователи: нет зарегистрированных пользователей

Ресурс не предоставляет электронные версии произведений, а занимается лишь коллекционированием и каталогизацией ссылок, присылаемых и публикуемых на форуме нашими читателями. Если вы являетесь правообладателем какого-либо представленного материала и не желаете чтобы ссылка на него находилась в нашем каталоге, свяжитесь с нами и мы незамедлительно удалим её. Файлы для обмена на трекере предоставлены пользователями сайта, и администрация не несёт ответственности за их содержание. Просьба не заливать файлы, защищенные авторскими правами, а также файлы нелегального содержания!
cron