Его собачье дело / Once Upon a Time in Venice (2017) BDRip-AVC от ExKinoRay | iTunes скачать торрент

Мировая классика кино, Rip, Рипы, Зарубежные фильмы

Модератор: Модераторы видео

  • Статистика раздачи
Размер: 1.41 ГБ   |  Зарегистрирован: 09 июл 2017, 14:43   |   .torrent скачан: 0 раз
Сидеров: 0  [ 0 байт/сек ]     Личеров: 0  [ 0 байт/сек ]  
Список файлов : Кто скачал : Раздают : Скачивают : Кто благодарил : История : Не раздающие : Запрашивали сидеров : Внешние трекеры 
  

Его собачье дело / Once Upon a Time in Venice (2017) BDRip-AVC от ExKinoRay | iTunes

Сообщение Админ » 09 июл 2017, 14:43

Информация о фильме
Название: Его собачье дело
Оригинальное название: Once Upon a Time in Venice
Год выпуска: 2017
Жанр: боевик, триллер, Комедия
Режиссер: Марк Каллен, Робб Каллен
В ролях: Элизабет Рём, Джейсон Момоа, Брюс Уиллис, Фамке Янссен, Ана Флавия Гавлак, Джон Гудмен, Томас Миддлдитч, Адам Голдберг, Кэл Пенн, Стефани Сигман

Описание:
Действие фильма будет происходить в Лос-Анджелесе. Профессиональная и личная жизнь главного героя пошла под откос, когда его пса Бадди похищает группа бандитов. Чтобы вернуть любимого питомца, частный детектив соглашается выполнять поручения преступников. Но пока он занят возвращением четвероногого друга, по его следам идут враги, среди которых двое суровых парней из Самоа, подручные ростовщика, которому герой задолжал деньги.



Страна: США
Студия: Voltage Pictures
Продолжительность: 01:33:06
Перевод: Дублированный | iTunes
Файл
Формат: MKV
Качество: BDRip-AVC
Видео: MPEG-4 AVC, 720x230 (2.40:1), 1758 Kbit/s, 24.000 fps, 0,339 bpp
Звук:
Аудио: 48 kHz, AC3, 5.1, 384 Kbps | RUS

Без какой-либо рекламы

General
Unique ID : 203692083111595852205727477345600358436 (0x993DAB111DC4149786D96B91213B4824)
Complete name : D:Once.Upon.a.Time.in.Venice.2017.BDRip.AVC.ExKinoRay.mkv
Format : Matroska
Format version : Version 2
File size : 1.41 GiB
Duration : 1 h 33 min
Overall bit rate : 2 142 kb/s
Movie name : Once Upon a Time in Venice (2017) from ExKinoRay
Encoded date : UTC 2017-07-07 11:29:28
Writing application : mkvmerge v5.6.0 ('Kenya Kane') built on May 27 2012 16:44:04
Writing library : libebml v1.2.3 + libmatroska v1.3.0

Video
ID : 1
Format : AVC
Format/Info : Advanced Video Codec
Format profile : [email protected]
Format settings, CABAC : Yes
Format settings, ReFrames : 10 frames
Codec ID : V_MPEG4/ISO/AVC
Duration : 1 h 33 min
Bit rate : 1 758 kb/s
Width : 720 pixels
Height : 300 pixels
Display aspect ratio : 2.40:1
Frame rate mode : Constant
Frame rate : 24.000 FPS
Color space : YUV
Chroma subsampling : 4:2:0
Bit depth : 8 bits
Scan type : Progressive
Bits/(Pixel*Frame) : 0.339
Stream size : 1.13 GiB (80%)
Title : Enigma
Writing library : x264 core 144 r2525 40bb568
Encoding settings : cabac=1 / ref=10 / deblock=1:-2:-2 / analyse=0x3:0x113 / me=umh / subme=10 / psy=1 / psy_rd=1.03:0.08 / mixed_ref=1 / me_range=32 / chroma_me=1 / trellis=2 / 8x8dct=1 / cqm=0 / deadzone=21,11 / fast_pskip=1 / chroma_qp_offset=-3 / threads=12 / lookahead_threads=2 / sliced_threads=0 / nr=0 / decimate=0 / interlaced=0 / bluray_compat=0 / constrained_intra=0 / bframes=10 / b_pyramid=2 / b_adapt=2 / b_bias=0 / direct=3 / weightb=1 / open_gop=0 / weightp=2 / keyint=240 / keyint_min=24 / scenecut=40 / intra_refresh=0 / rc_lookahead=40 / rc=2pass / mbtree=0 / bitrate=1758 / ratetol=1.0 / qcomp=0.63 / qpmin=0 / qpmax=51 / qpstep=4 / cplxblur=20.0 / qblur=0.5 / vbv_maxrate=50000 / vbv_bufsize=62500 / nal_hrd=none / filler=0 / ip_ratio=1.40 / pb_ratio=1.30 / aq=1:1.00
Default : Yes
Forced : No
Color range : Limited
Color primaries : BT.709
Transfer characteristics : BT.709
Matrix coefficients : BT.709

Audio
ID : 2
Format : AC-3
Format/Info : Audio Coding 3
Mode extension : CM (complete main)
Format settings, Endianness : Big
Codec ID : A_AC3
Duration : 1 h 33 min
Bit rate mode : Constant
Bit rate : 384 kb/s
Channel(s) : 6 channels
Channel positions : Front: L C R, Side: L R, LFE
Sampling rate : 48.0 kHz
Frame rate : 31.250 FPS (1536 spf)
Compression mode : Lossy
Stream size : 258 MiB (18%)
Title : iTunes
Language : Russian
Default : Yes
Forced : No

Menu
00:00:00.000 : en:00:00:00.000
00:18:30.833 : en:00:18:30.833
00:31:41.875 : en:00:31:41.875
00:46:30.333 : en:00:46:30.333
01:03:02.500 : en:01:03:02.500
01:18:44.792 : en:01:18:44.792



Релиз от:

Автор релиза:
   
Торрент: Зарегистрирован [09 июл 2017, 14:43] Скачать торрент
Скачать торрент
О MediaGet
[ Размер 15.06 КБ / Просмотров 67 ]

Статус:
 
Приватный: Нет (DHT включён)
Размер: 1.41 ГБ (1 508 785 900 байт)
   
Аватара пользователя

Администратор
Администратор
 
Раздал: 2.33 ПБ
Скачал: 1.02 ПБ
Ратио: 2.281
Сообщения: 3709
Зарегистрирован: 07 май 2010, 17:29
Medals: 1
Лучший релиз за месяц (1)
  • Личное сообщение
  • ICQ

  • Похожие торренты
    Ответы
    Просмотры
    Последнее сообщение

Вернуться в Зарубежные фильмы (Rip's)

Кто сейчас на конференции

Зарегистрированные пользователи: нет зарегистрированных пользователей

Ресурс не предоставляет электронные версии произведений, а занимается лишь коллекционированием и каталогизацией ссылок, присылаемых и публикуемых на форуме нашими читателями. Если вы являетесь правообладателем какого-либо представленного материала и не желаете чтобы ссылка на него находилась в нашем каталоге, свяжитесь с нами и мы незамедлительно удалим её. Файлы для обмена на трекере предоставлены пользователями сайта, и администрация не несёт ответственности за их содержание. Просьба не заливать файлы, защищенные авторскими правами, а также файлы нелегального содержания!
cron