Его собачье дело / Once Upon a Time in Venice (2017) WEB-DL 1080p от ExKinoRay | iTunes скачать торрент

Мировая классика кино, Rip, Рипы, Зарубежные фильмы

Модератор: Модераторы видео

  • Статистика раздачи
Размер: 3.52 ГБ   |  Зарегистрирован: 29 июн 2017, 01:22   |   .torrent скачан: 0 раз
Сидеров: 0  [ 0 байт/сек ]     Личеров: 0  [ 0 байт/сек ]  
Список файлов : Кто скачал : Раздают : Скачивают : Кто благодарил : История : Не раздающие : Запрашивали сидеров : Внешние трекеры 
  

Его собачье дело / Once Upon a Time in Venice (2017) WEB-DL 1080p от ExKinoRay | iTunes

Сообщение Админ » 29 июн 2017, 01:22

Информация о фильме
Название: Его собачье дело
Оригинальное название: Once Upon a Time in Venice
Год выхода: 2017
Жанр: боевик, триллер, Комедия
Режиссер: Марк Каллен, Робб Каллен
В ролях: Элизабет Рём, Джейсон Момоа, Брюс Уиллис, Фамке Янссен, Ана Флавия Гавлак, Джон Гудмен, Томас Миддлдитч, Адам Голдберг, Кэл Пенн, Стефани Сигман

О фильме:
Стивен Форд (Брюс Уиллис) – частный детектив из Лос-Анджелеса, профессиональная и личная жизни которого сталкиваются после того, как пресловутая банда уличных гангстеров похищает его любимого пса Бадди. Пытаясь отыскать бесследно исчезнувшую собаку, герой постепенно впутывается в череду странных обстоятельств – лидер группировки прибегает к шантажу и вынуждает Стива работать на себя, взамен обещая вернуть питомца в целости и сохранности. Одновременно с этим на хвост детективу сели два грозных брата-самоанца, которым Форд по-крупному задолжал. Впрочем, Стива это не останавливает, ведь он действительно готов пойти на всё, чтобы воссоединиться со своей любимой собакой


Страна: США
Студия: Voltage Pictures
Продолжительность: 01:34:07
Перевод: Дублированный | iTunes

Файл
Качество: WEB-DL 1080p
Видео: MPEG-4 AVC, 1916x792, 4583 Кbit/s, 23.976 fps
Звук:
Аудио #01: 48 kHz, AC3, 5.1, 384 Kbps | Дублированный | iTunes | RUS |
Аудио #02: 48 kHz, AC3, 5.1, 384 Kbps | Оригинал | ENG |
Субтитры: Английские



General
Unique ID : 219294326570673211128158272911487965875 (0xA4FA8D0F7E7528D98154BD145BAE9AB3)
Complete name : C:UsersbattiDesktopOnce.Upon.a.Time.in.Venice.2017.WEB-DL.1080p.ExKinoRay.mkv
Format : Matroska
Format version : Version 4 / Version 2
File size : 3.52 GiB
Duration : 1 h 34 min
Overall bit rate : 5 354 kb/s
Encoded date : UTC 2017-06-28 19:22:56
Writing application : mkvmerge v13.0.0 ('The Juggler') 64bit
Writing library : libebml v1.3.4 + libmatroska v1.4.5

Video
ID : 1
Format : AVC
Format/Info : Advanced Video Codec
Format profile : [email protected]
Format settings, CABAC : Yes
Format settings, ReFrames : 5 frames
Codec ID : V_MPEG4/ISO/AVC
Duration : 1 h 34 min
Bit rate : 4 583 kb/s
Width : 1 912 pixels
Height : 792 pixels
Display aspect ratio : 2.40:1
Frame rate mode : Constant
Frame rate : 23.976 (23976/1000) FPS
Color space : YUV
Chroma subsampling : 4:2:0
Bit depth : 8 bits
Scan type : Progressive
Bits/(Pixel*Frame) : 0.126
Stream size : 3.01 GiB (86%)
Language : English
Default : Yes
Forced : No
Color range : Limited
Color primaries : BT.709
Transfer characteristics : BT.709
Matrix coefficients : BT.709

Audio #1
ID : 2
Format : AC-3
Format/Info : Audio Coding 3
Format settings, Endianness : Big
Codec ID : A_AC3
Duration : 1 h 34 min
Bit rate mode : Constant
Bit rate : 384 kb/s
Channel(s) : 6 channels
Channel positions : Front: L C R, Side: L R, LFE
Sampling rate : 48.0 kHz
Frame rate : 31.250 FPS (1536 spf)
Bit depth : 16 bits
Compression mode : Lossy
Stream size : 258 MiB (7%)
Title : iTunes
Language : Russian
Service kind : Complete Main
Default : Yes
Forced : No

Audio #2
ID : 3
Format : AC-3
Format/Info : Audio Coding 3
Format settings, Endianness : Big
Codec ID : A_AC3
Duration : 1 h 34 min
Bit rate mode : Constant
Bit rate : 384 kb/s
Channel(s) : 6 channels
Channel positions : Front: L C R, Side: L R, LFE
Sampling rate : 48.0 kHz
Frame rate : 31.250 FPS (1536 spf)
Bit depth : 16 bits
Compression mode : Lossy
Stream size : 258 MiB (7%)
Title : Original
Language : English
Service kind : Complete Main
Default : No
Forced : No

Text
ID : 4
Format : UTF-8
Codec ID : S_TEXT/UTF8
Codec ID/Info : UTF-8 Plain Text
Duration : 1 h 30 min
Bit rate : 71 b/s
Count of elements : 1426
Stream size : 47.1 KiB (0%)
Title : Full
Language : English
Default : No
Forced : No

Menu
00:00:00.000 : en:1
00:11:39.366 : en:2
00:20:29.562 : en:3
00:31:51.285 : en:4
00:41:57.641 : en:5
00:52:00.535 : en:6
01:01:14.422 : en:7
01:10:29.685 : en:8
01:21:39.730 : en:9
01:29:47.676 : en:10


Релиз от: Автор релиза:
Подпишись на меня, кликни по картинке > :
   
Торрент: Зарегистрирован [29 июн 2017, 01:22] Скачать торрент
Скачать торрент
О MediaGet
[ Размер 18.6 КБ / Просмотров 97 ]

Статус:
 
Приватный: Нет (DHT включён)
Размер: 3.52 ГБ (3 779 051 239 байт)
   
Аватара пользователя

Администратор
Администратор
 
Раздал: 2.33 ПБ
Скачал: 1.02 ПБ
Ратио: 2.281
Сообщения: 3723
Зарегистрирован: 07 май 2010, 17:29
Medals: 1
Лучший релиз за месяц (1)
  • Личное сообщение
  • ICQ

Вернуться в Зарубежные фильмы (Rip's)

Кто сейчас на конференции

Зарегистрированные пользователи: agent513, SeGaWRX

Ресурс не предоставляет электронные версии произведений, а занимается лишь коллекционированием и каталогизацией ссылок, присылаемых и публикуемых на форуме нашими читателями. Если вы являетесь правообладателем какого-либо представленного материала и не желаете чтобы ссылка на него находилась в нашем каталоге, свяжитесь с нами и мы незамедлительно удалим её. Файлы для обмена на трекере предоставлены пользователями сайта, и администрация не несёт ответственности за их содержание. Просьба не заливать файлы, защищенные авторскими правами, а также файлы нелегального содержания!
cron