Никита Кожемяка / Микита Кожум'яка (2016) WEB-DLRip-AVC от OlLanDGroup | iTunes скачать торрент

Мировая классика кино, Rip, Рипы, Зарубежные фильмы

Модератор: Модераторы видео

  • Статистика раздачи
Размер: 1.41 ГБ   |  Зарегистрирован: 25 июн 2017, 17:32   |   .torrent скачан: 117 раз
Сидеров: 94  [ 0 байт/сек ]     Личеров: 2  [ 0 байт/сек ]  
Список файлов : Кто скачал : Раздают : Скачивают : Кто благодарил : История : Не раздающие : Запрашивали сидеров : Внешние трекеры 
  

Никита Кожемяка / Микита Кожум'яка (2016) WEB-DLRip-AVC от OlLanDGroup | iTunes

Сообщение Админ » 25 июн 2017, 17:32

Информация о фильме
Название: Никита Кожемяка
Оригинальное название: Микита Кожум'яка
Год выпуска: 2017
Жанр: Мультфильм, Комедия, семейный, фэнтези, приключения, полнометражный

Выпущено: Украина, Карандаш Продашкн
Режиссер: Манук Депоян
В ролях: Арсен Шавлюк (Никита), Василий Вирастюк (Кирило), Сергей Сивохо (Дракон), Руслана Писанка (Ведьма)
О фильме: Жизнь в городе Киеве течет спокойно и счастливо, пока его не атакует злобный дракон. Спасти горожан от лап чудовища может лишь богатырь Кожемяка, которому вскоре и удается это сделать. Прошло много лет, теперь он воспитывает своего маленького сына Никиту, в груди которого бьется сердце отважного героя, мечтающего о приключениях. Хотя сын и не наделен той силой, что есть у его отца-богатыря, он решил броситься навстречу опасностям, чтобы убить ведьму, в которую вселился дух змея, и доказать родителям свои способности. На подмогу герою приходят верные соратники: телёнок и мудрая летучая мышь. Вместе им удается попасть в магический мир, полный различных чудес. Никите же теперь выпадет шанс совершить настоящий подвиг и стать достойным преемником богатыря Кожемяки.


Качество: WEB-DLRip-AVC
Формат: MKV
Видео кодек: x264
Аудио кодек: AC3
Видео: 720x404 (16:9), 24,000 fps, x264 ~1788 kbps avg, 0.256 bit/pixel
Аудио 1: 48 kHz, AC3 Dolby Digital, 3/2 (L,C,R,l,r) + LFE ch, ~384 kbps avg | RUS
Аудио 2: 48 kHz, AC3 Dolby Digital, 2 ch, ~160 kbps avg | Оригинал | UKR
Продолжительность: 01:26:25
Перевод: Дублированный | iTunes

Релиз от: Rip by:

Общее
Уникальный идентификатор : 246474967007065099716224577193212321207 (0xB96D5A196673653A932CB17DAEA31DB7)
Полное имя : D:TempNikita.Kozhemyaka.2017.WEB-DLRip(AVC).1.4Gb.OlLanDGroup.mkv
Формат : Matroska
Версия формата : Version 4 / Version 2
Размер файла : 1,41 Гбайт
Продолжительность : 1 ч. 26 м.
Общий поток : 2334 Кбит/сек
Название фильма : OlLanDGroup
Дата кодирования : UTC 2017-06-25 01:09:42
Программа кодирования : mkvmerge v12.0.0 ('Trust / Lust') 64bit
Библиотека кодирования : libebml v1.3.4 + libmatroska v1.4.5
DURATION : 01:26:24.928000000
NUMBER_OF_FRAMES : 162029
NUMBER_OF_BYTES : 103698560
_STATISTICS_WRITING_APP : mkvmerge v12.0.0 ('Trust / Lust') 64bit
_STATISTICS_WRITING_DATE_UTC : 2017-06-25 01:09:42
_STATISTICS_TAGS : BPS DURATION NUMBER_OF_FRAMES NUMBER_OF_BYTES

Видео
Идентификатор : 1
Формат : AVC
Формат/Информация : Advanced Video Codec
Профиль формата : [email protected]
Параметр CABAC формата : Да
Параметр ReFrames формата : 10 кадров
Идентификатор кодека : V_MPEG4/ISO/AVC
Продолжительность : 1 ч. 26 м.
Битрейт : 1788 Кбит/сек
Ширина : 720 пикселей
Высота : 404 пикселя
Соотношение сторон : 16:9
Режим частоты кадров : Постоянный
Частота кадров : 24,000 кадра/сек
Цветовое пространство : YUV
Субдискретизация насыщенности : 4:2:0
Битовая глубина : 8 бит
Тип развёртки : Прогрессивная
Бит/(Пиксели*Кадры) : 0.256
Размер потока : 1,05 Гбайт (75%)
Заголовок : OlLanDGroup
Библиотека кодирования : x264 core 146 r2538 121396c
Настройки программы : cabac=1 / ref=10 / deblock=1:-3:-3 / analyse=0x3:0x133 / me=umh / subme=10 / psy=1 / psy_rd=1.00:0.06 / mixed_ref=1 / me_range=32 / chroma_me=1 / trellis=2 / 8x8dct=1 / cqm=0 / deadzone=21,11 / fast_pskip=0 / chroma_qp_offset=-3 / threads=6 / lookahead_threads=1 / sliced_threads=0 / nr=0 / decimate=0 / interlaced=0 / bluray_compat=0 / constrained_intra=0 / bframes=10 / b_pyramid=2 / b_adapt=2 / b_bias=0 / direct=3 / weightb=1 / open_gop=0 / weightp=2 / keyint=240 / keyint_min=23 / scenecut=40 / intra_refresh=0 / rc_lookahead=40 / rc=2pass / mbtree=0 / bitrate=1788 / ratetol=1.0 / qcomp=0.60 / qpmin=0 / qpmax=69 / qpstep=4 / cplxblur=20.0 / qblur=0.5 / vbv_maxrate=50000 / vbv_bufsize=62500 / nal_hrd=none / filler=0 / ip_ratio=1.40 / pb_ratio=1.30 / aq=1:1.00
Язык : Ukrainian
Default : Да
Forced : Нет
Основные цвета : BT.709
Характеристики трансфера : BT.709
Коэффициенты матрицы : BT.709

Аудио #1
Идентификатор : 2
Формат : AC-3
Формат/Информация : Audio Coding 3
Расширение режима : CM (complete main)
Параметр Endianness формата : Big
Идентификатор кодека : A_AC3
Продолжительность : 1 ч. 26 м.
Вид битрейта : Постоянный
Битрейт : 384 Кбит/сек
Каналы : 6 каналов
Расположение каналов : Front: L C R, Side: L R, LFE
Частота : 48,0 КГц
Битовая глубина : 16 бит
Метод сжатия : С потерями
Размер потока : 237 Мбайт (16%)
Язык : Russian
Default : Да
Forced : Нет

Аудио #2
Идентификатор : 3
Формат : AC-3
Формат/Информация : Audio Coding 3
Расширение режима : CM (complete main)
Параметр Endianness формата : Big
Идентификатор кодека : A_AC3
Продолжительность : 1 ч. 26 м.
Вид битрейта : Постоянный
Битрейт : 160 Кбит/сек
Каналы : 2 канала
Расположение каналов : Front: L R
Частота : 48,0 КГц
Битовая глубина : 16 бит
Метод сжатия : С потерями
Размер потока : 98,9 Мбайт (7%)
Язык : Ukrainian
Default : Нет
Forced : Нет

Меню
00:00:00.000 : :Chapter 01
00:05:20.208 : :Chapter 02
00:12:57.958 : :Chapter 03
00:18:46.124 : :Chapter 04
00:24:28.499 : :Chapter 05
00:30:18.249 : :Chapter 06
00:35:41.124 : :Chapter 07
00:41:02.957 : :Chapter 08
00:47:22.665 : :Chapter 09
00:54:12.956 : :Chapter 10
00:58:05.164 : :Chapter 11
01:03:31.664 : :Chapter 12
01:07:02.664 : :Chapter 13
01:11:15.580 : :Chapter 14
01:16:00.871 : :Chapter 15
01:26:25.000 : :Chapter 16



   
Торрент: Зарегистрирован [25 июн 2017, 17:32] Скачать торрент
Скачать торрент
О MediaGet
[ Размер 15.11 КБ / Просмотров 105 ]

Статус:
 
Приватный: Нет (DHT включён)
Размер: 1.41 ГБ (1 512 661 968 байт)
   
Аватара пользователя

Администратор
Администратор
 
Раздал: 2.33 ПБ
Скачал: 1.02 ПБ
Ратио: 2.281
Сообщения: 3723
Зарегистрирован: 07 май 2010, 17:29
Medals: 1
Лучший релиз за месяц (1)
  • Личное сообщение
  • ICQ

Вернуться в Зарубежные фильмы (Rip's)

Кто сейчас на конференции

Зарегистрированные пользователи: bigcatwar

Ресурс не предоставляет электронные версии произведений, а занимается лишь коллекционированием и каталогизацией ссылок, присылаемых и публикуемых на форуме нашими читателями. Если вы являетесь правообладателем какого-либо представленного материала и не желаете чтобы ссылка на него находилась в нашем каталоге, свяжитесь с нами и мы незамедлительно удалим её. Файлы для обмена на трекере предоставлены пользователями сайта, и администрация не несёт ответственности за их содержание. Просьба не заливать файлы, защищенные авторскими правами, а также файлы нелегального содержания!
cron