Конг: Остров черепа / Kong: Skull Island (2017) WEB-DL 1080р от ExKinoRay | iTunes скачать торрент

Мировая классика кино, Rip, Рипы, Зарубежные фильмы

Модератор: Модераторы видео

  • Статистика раздачи
Размер: 4.39 ГБ   |  Зарегистрирован: 21 июн 2017, 17:58   |   .torrent скачан: 20589 раз
Сидеров: 4410  [ 0 байт/сек ]     Личеров: 314  [ 0 байт/сек ]  
Список файлов : Кто скачал : Раздают : Скачивают : Кто благодарил : История : Не раздающие : Запрашивали сидеров : Внешние трекеры 
  

Конг: Остров черепа / Kong: Skull Island (2017) WEB-DL 1080р от ExKinoRay | iTunes

Сообщение Админ » 21 июн 2017, 17:58

Информация о фильме
Название: Конг: Остров черепа
Оригинальное название: Kong: Skull Island
Год выхода: 2017
Жанр: Фантастика, фэнтези, боевик, приключения
Режиссер: Джордан Вот-Робертс
В ролях: Том Хиддлстон, Сэмюэл Л. Джексон, Джон Гудмен, Бри Ларсон, Тянь Цзин, Тоби Кеббелл, Джон Ортис, Кори Хоукинс, Джейсон Митчелл, Ши Уигхэм

О фильме:
Успешно остановив войну во Вьетнаме, пентагоновские ястребы продолжают нагнетать демократию в самых отдаленных и малоизученных закоулках планеты. На этот раз их целью становится только что обнаруженный со спутника остров в Тихом океане, куда немедленно отправляется этнографическая экспедиция в поисках нефти и других полезных для нужд свободного мира ископаемых. На всякий случай ученых и других искателей неприятностей сопровождает внушительный армейский контингент во главе с подполковником Паккардом, имеющем обширный опыт в миротворческих операциях. Между тем, на острове обнаруживается диковинная экосистема, девственно нетронутая еще до времен эпохи исторического материализма. И когда заблудившиеся исследователи случайно роняют с боевых вертолетов несколько емкостей гуманитарного груза прямо на банановые заросли, местная фауна в лице царь-гориллы и прочих гигантских вывертов эволюции вероломно начинает геноцид мирных ученых и примкнувших к ним военных


Страна: США, Вьетнам
Студия: Legendary Pictures, Warner Bros. Pictures
Продолжительность: 01:58:21
Перевод: Дублированный | iTunes

Файл
Качество: WEB-DL 1080p
Видео: MPEG-4 AVC, 1912x792, 4537 Kbit/s, 23.976 fps
Звук:
Аудио #01: 48 kHz, AC3, 5.1, 384 Kbps | Дублированный | iTunes | RUS |
Аудио #02: 48 kHz, AC3, 5.1, 384 Kbps | Оригинал | ENG |
Субтитры: Русские (full, forced), английские



General
Unique ID : 213422666955904498138661215588915045303 (0xA08FB5E3FE05E6AB90900C62F86363B7)
Complete name : C:UsersbattiDesktopKong.Skull.Island.2017.WEB-DL.1080p.ExKinoRay.mkv
Format : Matroska
Format version : Version 4 / Version 2
File size : 4.39 GiB
Duration : 1 h 58 min
Overall bit rate : 5 308 kb/s
Encoded date : UTC 2017-06-20 18:31:53
Writing application : mkvmerge v12.0.0 ('Trust / Lust') 64bit
Writing library : libebml v1.3.4 + libmatroska v1.4.5

Video
ID : 1
Format : AVC
Format/Info : Advanced Video Codec
Format profile : [email protected]
Format settings, CABAC : Yes
Format settings, ReFrames : 5 frames
Codec ID : V_MPEG4/ISO/AVC
Duration : 1 h 58 min
Bit rate : 4 537 kb/s
Width : 1 912 pixels
Height : 792 pixels
Display aspect ratio : 2.40:1
Frame rate mode : Constant
Frame rate : 23.976 (23976/1000) FPS
Color space : YUV
Chroma subsampling : 4:2:0
Bit depth : 8 bits
Scan type : Progressive
Bits/(Pixel*Frame) : 0.125
Stream size : 3.75 GiB (85%)
Language : English
Default : Yes
Forced : No
Color range : Limited
Color primaries : BT.709
Transfer characteristics : BT.709
Matrix coefficients : BT.709

Audio #1
ID : 2
Format : AC-3
Format/Info : Audio Coding 3
Format settings, Endianness : Big
Codec ID : A_AC3
Duration : 1 h 58 min
Bit rate mode : Constant
Bit rate : 384 kb/s
Channel(s) : 6 channels
Channel positions : Front: L C R, Side: L R, LFE
Sampling rate : 48.0 kHz
Frame rate : 31.250 FPS (1536 spf)
Bit depth : 16 bits
Compression mode : Lossy
Delay relative to video : -42 ms
Stream size : 325 MiB (7%)
Title : iTunes
Language : Russian
Service kind : Complete Main
Default : Yes
Forced : No

Audio #2
ID : 3
Format : AC-3
Format/Info : Audio Coding 3
Format settings, Endianness : Big
Codec ID : A_AC3
Duration : 1 h 58 min
Bit rate mode : Constant
Bit rate : 384 kb/s
Channel(s) : 6 channels
Channel positions : Front: L C R, Side: L R, LFE
Sampling rate : 48.0 kHz
Frame rate : 31.250 FPS (1536 spf)
Bit depth : 16 bits
Compression mode : Lossy
Delay relative to video : -42 ms
Stream size : 325 MiB (7%)
Title : Original
Language : English
Service kind : Complete Main
Default : No
Forced : No

Text #1
ID : 4
Format : UTF-8
Codec ID : S_TEXT/UTF8
Codec ID/Info : UTF-8 Plain Text
Duration : 1 h 57 min
Bit rate : 3 b/s
Count of elements : 66
Stream size : 3.31 KiB (0%)
Title : Forced
Language : Russian
Default : Yes
Forced : No

Text #2
ID : 5
Format : UTF-8
Codec ID : S_TEXT/UTF8
Codec ID/Info : UTF-8 Plain Text
Duration : 1 h 57 min
Bit rate : 76 b/s
Count of elements : 1264
Stream size : 65.3 KiB (0%)
Title : Full
Language : Russian
Default : No
Forced : No

Text #3
ID : 6
Format : UTF-8
Codec ID : S_TEXT/UTF8
Codec ID/Info : UTF-8 Plain Text
Duration : 1 h 54 min
Bit rate : 46 b/s
Count of elements : 974
Stream size : 39.0 KiB (0%)
Title : Full
Language : English
Default : No
Forced : No

Menu
00:00:00.000 : en:1
00:08:54.000 : en:2
00:19:51.000 : en:3
00:30:00.000 : en:4
00:40:00.000 : en:5
00:50:12.000 : en:6
01:00:49.000 : en:7
01:10:29.000 : en:8
01:18:05.000 : en:9
01:30:12.000 : en:10
01:39:09.000 : en:11
01:47:05.000 : en:12


Релиз от: Автор релиза:
Подпишись на меня, кликни по картинке -> :
   
Торрент: Зарегистрирован [21 июн 2017, 17:58] Скачать торрент
Скачать торрент
О MediaGet
[ Размер 22.95 КБ / Просмотров 170 ]

Статус:
 
Приватный: Нет (DHT включён)
Размер: 4.39 ГБ (4 711 405 515 байт)
   
Аватара пользователя

Администратор
Администратор
 
Раздал: 2.33 ПБ
Скачал: 1.02 ПБ
Ратио: 2.281
Сообщения: 3721
Зарегистрирован: 07 май 2010, 17:29
Medals: 1
Лучший релиз за месяц (1)
  • Личное сообщение
  • ICQ

  • Похожие торренты
    Ответы
    Просмотры
    Последнее сообщение

Вернуться в Зарубежные фильмы (Rip's)

Кто сейчас на конференции

Зарегистрированные пользователи: нет зарегистрированных пользователей

Ресурс не предоставляет электронные версии произведений, а занимается лишь коллекционированием и каталогизацией ссылок, присылаемых и публикуемых на форуме нашими читателями. Если вы являетесь правообладателем какого-либо представленного материала и не желаете чтобы ссылка на него находилась в нашем каталоге, свяжитесь с нами и мы незамедлительно удалим её. Файлы для обмена на трекере предоставлены пользователями сайта, и администрация не несёт ответственности за их содержание. Просьба не заливать файлы, защищенные авторскими правами, а также файлы нелегального содержания!
cron