Затерянный город Z / The Lost City of Z (2016) WEB-DL 1080p от ExKinoRay | Локализованная версия | iTunes скачать торрент

Мировая классика кино, Rip, Рипы, Зарубежные фильмы

Модератор: Модераторы видео

  • Статистика раздачи
Размер: 4.64 ГБ   |  Зарегистрирован: 21 июн 2017, 17:57   |   .torrent скачан: 13105 раз
Сидеров: 3523  [ 0 байт/сек ]     Личеров: 552  [ 0 байт/сек ]  
Список файлов : Кто скачал : Раздают : Скачивают : Кто благодарил : История : Не раздающие : Запрашивали сидеров : Внешние трекеры 
  

Затерянный город Z / The Lost City of Z (2016) WEB-DL 1080p от ExKinoRay | Локализованная версия | iTunes

Сообщение Админ » 21 июн 2017, 17:57

Информация о фильме
Название: Затерянный город Z
Оригинальное название: The Lost City of Z
Год выхода: 2016
Жанр: боевик, драма, приключения, биография, история
Режиссер: Джеймс Грэй
В ролях: Чарли Ханнэм, Сиенна Миллер, Роберт Паттинсон, Том Холланд (II), Эдвард Эшли, Энгус Макфадьен, Иен МакДермид, Клайв Фрэнсис, Педро Коэльо, Мэтью Сандерлэнд

О фильме:
Фильм про полковника Фоссета, который хотел найти затерянный город. Фоссет является членом Географического Королевского общества, и его считали одним из лучших исследователей Южной Америки, во времена ХХ века. Он многие годы посвятил своим изучением, новым открытиям и написанию разных доводов. Но почему-то, больше всего его интересовали регионы Бразилии, он туда направлялся несколько раз, ездил примерно между 19, собрался разыскать потерянный город, который должен был находиться на территории Мату-Гроссо ( штат). Но странно то, что перед своим отъездом, он просил: « Если его исследовательская группа, не вернется к сроку, который назначен, искать их не нужно». Именно так и случилось, его группа не вернулась… Очень много раз, пытались соединится, связаться с группой Форесса, но по сей день маршрут экспедиции не установлен. Возможно, группа нашла этот город, и осталась там? Это нужно узнать обязательно


Страна: США
Студия: Keep Your Head, MadRiver Pictures, MICA Entertainment
Продолжительность: 02:14:58
Перевод: Дублированный | iTunes

Файл
Качество: WEB-DL 1080p | Локализованный видеоряд
Видео: MPEG-4 AVC, 1920x804, 4534 Kbit/s, 25.000 fps
Звук: 48 kHz, AC3, 5.1, 384 Kbps | Дублированный | iTunes | RUS |



General
Unique ID : 246664994100994821824736410325449294376 (0xB991F3288689DACCADEB2C721455C228)
Complete name : C:UsersbattiDesktopThe.Lost.City.of.Z.2016.WEB-DL.1080p.ExKinoRay.mkv
Format : Matroska
Format version : Version 4 / Version 2
File size : 4.64 GiB
Duration : 2 h 14 min
Overall bit rate : 4 920 kb/s
Encoded date : UTC 2017-06-19 22:26:02
Writing application : mkvmerge v12.0.0 ('Trust / Lust') 64bit
Writing library : libebml v1.3.4 + libmatroska v1.4.5

Video
ID : 1
Format : AVC
Format/Info : Advanced Video Codec
Format profile : [email protected]
Format settings, CABAC : Yes
Format settings, ReFrames : 5 frames
Codec ID : V_MPEG4/ISO/AVC
Duration : 2 h 14 min
Bit rate : 4 534 kb/s
Width : 1 920 pixels
Height : 804 pixels
Display aspect ratio : 2.40:1
Frame rate mode : Constant
Frame rate : 25.000 FPS
Color space : YUV
Chroma subsampling : 4:2:0
Bit depth : 8 bits
Scan type : Progressive
Bits/(Pixel*Frame) : 0.117
Stream size : 4.27 GiB (92%)
Language : English
Default : Yes
Forced : No
Color range : Limited
Color primaries : BT.709
Transfer characteristics : BT.709
Matrix coefficients : BT.709

Audio
ID : 2
Format : AC-3
Format/Info : Audio Coding 3
Format settings, Endianness : Big
Codec ID : A_AC3
Duration : 2 h 14 min
Bit rate mode : Constant
Bit rate : 384 kb/s
Channel(s) : 6 channels
Channel positions : Front: L C R, Side: L R, LFE
Sampling rate : 48.0 kHz
Frame rate : 31.250 FPS (1536 spf)
Bit depth : 16 bits
Compression mode : Lossy
Stream size : 371 MiB (8%)
Title : iTunes
Language : Russian
Service kind : Complete Main
Default : Yes
Forced : No

Menu
00:00:00.000 : en:Глава 1
00:07:40.240 : en:Глава 2
00:14:33.680 : en:Глава 3
00:19:50.680 : en:Глава 4
00:25:42.320 : en:Глава 5
00:31:17.120 : en:Глава 6
00:35:51.200 : en:Глава 7
00:42:47.600 : en:Глава 8
00:47:13.560 : en:Глава 9
00:55:41.360 : en:Глава 10
01:01:43.320 : en:Глава 11
01:07:54.720 : en:Глава 12
01:14:15.160 : en:Глава 13
01:19:22.200 : en:Глава 14
01:26:38.960 : en:Глава 15
01:35:19.999 : en:Глава 16
01:42:32.759 : en:Глава 17
01:48:52.319 : en:Глава 18
01:53:46.799 : en:Глава 19
02:02:57.439 : en:Глава 20


Релиз от: Автор релиза:
Подпишись на меня, кликни по картинке > :
   
Торрент: Зарегистрирован [21 июн 2017, 17:57] Скачать торрент
Скачать торрент
О MediaGet
[ Размер 24.2 КБ / Просмотров 139 ]

Статус:
 
Приватный: Нет (DHT включён)
Размер: 4.64 ГБ (4 980 825 198 байт)
   
Аватара пользователя

Администратор
Администратор
 
Раздал: 2.33 ПБ
Скачал: 1.02 ПБ
Ратио: 2.281
Сообщения: 3695
Зарегистрирован: 07 май 2010, 17:29
Medals: 1
Лучший релиз за месяц (1)
  • Личное сообщение
  • ICQ

Вернуться в Зарубежные фильмы (Rip's)

Кто сейчас на конференции

Зарегистрированные пользователи: fas28

Ресурс не предоставляет электронные версии произведений, а занимается лишь коллекционированием и каталогизацией ссылок, присылаемых и публикуемых на форуме нашими читателями. Если вы являетесь правообладателем какого-либо представленного материала и не желаете чтобы ссылка на него находилась в нашем каталоге, свяжитесь с нами и мы незамедлительно удалим её. Файлы для обмена на трекере предоставлены пользователями сайта, и администрация не несёт ответственности за их содержание. Просьба не заливать файлы, защищенные авторскими правами, а также файлы нелегального содержания!
cron