Кухня. Последняя битва (2017) BDRip 720p от ExKinoRay | Лицензия скачать торрент

Мировая классика кино, Rip, Рипы, Зарубежные фильмы

Модератор: Модераторы видео

  • Статистика раздачи
Размер: 3.96 ГБ   |  Зарегистрирован: 17 июн 2017, 13:59   |   .torrent скачан: 0 раз
Сидеров: 0  [ 0 байт/сек ]     Личеров: 0  [ 0 байт/сек ]  
Список файлов : Кто скачал : Раздают : Скачивают : Кто благодарил : История : Не раздающие : Запрашивали сидеров : Внешние трекеры 
  

Кухня. Последняя битва (2017) BDRip 720p от ExKinoRay | Лицензия

Сообщение Админ » 17 июн 2017, 13:59

Информация о фильме
Оригинальное название: Кухня. Последняя битва
Год выпуска: 2017
Жанр: Комедия
Режиссер: Антон Федотов
В ролях: Дмитрий Нагиев, Дмитрий Назаров, Сергей Лавыгин, Олег Табаков, Анфиса Черных, Кирилл Ковбас, Сергей Епишев, Никита Тарасов, Михаил Тарабукин, Михаил Башкатов

Описание:
Виктору Баринову по личной просьбе Президента России предстоит отправиться в Сочи на чемпионат мира среди профессиональных поваров и доказать, что он и его команда лучшие в мире! В тяжелой борьбе за звание победителя Шефу будет помогать «тёмная лошадка» — его родной сын Иван, о котором он неожиданно узнал накануне чемпионата.



Выпущено: Россия, Фонд кино, Forever Films, Yellow, Black & White
Продолжительность: 01:54:27
Язык: Русский (Лицензия)
Файл
Качество: BDRip 720p
Формат: MKV
Видео: AVC, 1280x536 (2.40:1), 4322 kbps, 24.000 fps, 0,262 bpp
Аудио: AC-3, 48.0 KHz, 5.1 ch, 640 Kbps, CBR (Russian)
Без какой-либо рекламы

General
Unique ID : 240993149529299839378079698677696658324 (0xB54D97A16F99A25BBE397FCFE8357B94)
Complete name : D:Kuhnia.2017.BDRip.720p.ExKinoRay.mkv
Format : Matroska
Format version : Version 2
File size : 3.96 GiB
Duration : 1 h 54 min
Overall bit rate : 4 960 kb/s
Movie name : Кухня. Последняя битва (2017) from ExKinoRay
Encoded date : UTC 2017-06-16 21:07:31
Writing application : mkvmerge v5.6.0 ('Kenya Kane') built on May 27 2012 16:44:04
Writing library : libebml v1.2.3 + libmatroska v1.3.0

Video
ID : 1
Format : AVC
Format/Info : Advanced Video Codec
Format profile : [email protected]
Format settings, CABAC : Yes
Format settings, ReFrames : 11 frames
Codec ID : V_MPEG4/ISO/AVC
Duration : 1 h 54 min
Bit rate : 4 322 kb/s
Width : 1 280 pixels
Height : 536 pixels
Display aspect ratio : 2.40:1
Frame rate mode : Constant
Frame rate : 24.000 FPS
Color space : YUV
Chroma subsampling : 4:2:0
Bit depth : 8 bits
Scan type : Progressive
Bits/(Pixel*Frame) : 0.262
Stream size : 3.37 GiB (85%)
Title : Enigma
Writing library : x264 core 144 r2525 40bb568
Encoding settings : cabac=1 / ref=11 / deblock=1:-2:-2 / analyse=0x3:0x113 / me=umh / subme=10 / psy=1 / psy_rd=1.03:0.09 / mixed_ref=1 / me_range=32 / chroma_me=1 / trellis=2 / 8x8dct=1 / cqm=0 / deadzone=21,11 / fast_pskip=1 / chroma_qp_offset=-3 / threads=12 / lookahead_threads=3 / sliced_threads=0 / nr=0 / decimate=0 / interlaced=0 / bluray_compat=0 / constrained_intra=0 / bframes=10 / b_pyramid=2 / b_adapt=2 / b_bias=0 / direct=3 / weightb=1 / open_gop=0 / weightp=2 / keyint=240 / keyint_min=24 / scenecut=40 / intra_refresh=0 / rc_lookahead=40 / rc=2pass / mbtree=0 / bitrate=4322 / ratetol=1.0 / qcomp=0.60 / qpmin=0 / qpmax=51 / qpstep=4 / cplxblur=20.0 / qblur=0.5 / vbv_maxrate=50000 / vbv_bufsize=62500 / nal_hrd=none / filler=0 / ip_ratio=1.40 / pb_ratio=1.30 / aq=1:1.00
Language : English
Default : Yes
Forced : No
Color range : Limited
Color primaries : BT.709
Transfer characteristics : BT.709
Matrix coefficients : BT.709

Audio
ID : 2
Format : AC-3
Format/Info : Audio Coding 3
Mode extension : CM (complete main)
Format settings, Endianness : Big
Codec ID : A_AC3
Duration : 1 h 54 min
Bit rate mode : Constant
Bit rate : 640 kb/s
Channel(s) : 6 channels
Channel positions : Front: L C R, Side: L R, LFE
Sampling rate : 48.0 kHz
Frame rate : 31.250 FPS (1536 spf)
Compression mode : Lossy
Stream size : 524 MiB (13%)
Title : Blu-ray RUS
Language : Russian
Default : Yes
Forced : No

Menu
00:00:00.000 : :Chapter 01
00:00:39.208 : :Chapter 02
00:10:56.000 : :Chapter 03
00:24:09.000 : :Chapter 04
00:36:06.833 : :Chapter 05
00:48:49.625 : :Chapter 06
01:02:26.625 : :Chapter 07
01:20:13.333 : :Chapter 08
01:33:18.125 : :Chapter 09





Релиз от:

Автор релиза:
   
Торрент: Зарегистрирован [17 июн 2017, 13:59] Скачать торрент
Скачать торрент
О MediaGet
[ Размер 20.83 КБ / Просмотров 74 ]

Статус:
 
Приватный: Нет (DHT включён)
Размер: 3.96 ГБ (4 257 312 978 байт)
   
Аватара пользователя

Администратор
Администратор
 
Раздал: 2.33 ПБ
Скачал: 1.02 ПБ
Ратио: 2.281
Сообщения: 3695
Зарегистрирован: 07 май 2010, 17:29
Medals: 1
Лучший релиз за месяц (1)
  • Личное сообщение
  • ICQ

  • Похожие торренты
    Ответы
    Просмотры
    Последнее сообщение

Вернуться в Зарубежные фильмы (Rip's)

Кто сейчас на конференции

Зарегистрированные пользователи: fas28

Ресурс не предоставляет электронные версии произведений, а занимается лишь коллекционированием и каталогизацией ссылок, присылаемых и публикуемых на форуме нашими читателями. Если вы являетесь правообладателем какого-либо представленного материала и не желаете чтобы ссылка на него находилась в нашем каталоге, свяжитесь с нами и мы незамедлительно удалим её. Файлы для обмена на трекере предоставлены пользователями сайта, и администрация не несёт ответственности за их содержание. Просьба не заливать файлы, защищенные авторскими правами, а также файлы нелегального содержания!
cron