Чудо-женщина / Wonder Woman (2017) TS 720p | D | Звук TS скачать торрент

Мировая классика кино, Rip, Рипы, Зарубежные фильмы

Модератор: Модераторы видео

  • Статистика раздачи
Размер: 3.08 ГБ   |  Зарегистрирован: 17 июн 2017, 13:57   |   .torrent скачан: 1241 раз
Сидеров: 1260  [ 0 байт/сек ]     Личеров: 122  [ 0 байт/сек ]  
Список файлов : Кто скачал : Раздают : Скачивают : Кто благодарил : История : Не раздающие : Запрашивали сидеров : Внешние трекеры 
  

Чудо-женщина / Wonder Woman (2017) TS 720p | D | Звук TS

Сообщение Админ » 17 июн 2017, 13:57

Информация о фильме
Название: Чудо-женщина
Оригинальное название: Wonder Woman
Год выхода: 2017
Жанр: фантастика, фэнтези, боевик, приключения
Режиссер: Пэтти Дженкинс
В ролях: Галь Гадот, Робин Райт, Дэвид Тьюлис, Конни Нильсен, Крис Пайн, Елена Анайя, Люси Дэвис, Юэн Бремнер, Даутцен Крёз, Дэнни Хьюстон

О фильме:
Перед тем как стать Чудо-Женщиной, она была Дианой — принцессой амазонок, обученной быть непобедимой воительницей. И когда на берегах ограждённого от внешнего мира райского острова, который служил ей родиной, терпит крушение американский пилот и рассказывает о серьёзном конфликте, бушующем во внешнем мире, Диана покидает свой дом, чтобы справиться с этой угрозой. И там, сражаясь бок о бок с человеком в войне за мир, Диана обнаружит всю полноту своей власти… и своё истинное предназначение.



Страна: США
Продолжительность: 02:10:35
Перевод: Дублированный [Звук TS]
Автор сведения и чистки звука DENZEL519

Файл
Качество: TS 720p
Формат: MKV
Видео кодек: AVC
Аудио кодек: AC3
Видео: 1280x554 (2.35:1), 23.976 fps, AVC, 2 542 Kbps
Аудио #1: AC3, 384 Kbps, 44.1 KHz, 2 ch [Rus]
Аудио #2: AC3, 384 Kbps, 44.1 KHz, 2 ch [Eng]
Субтитры: корейские (неотключаемые)



Video
ID : 1
Format : AVC
Format/Info : Advanced Video Codec
Format profile : High 4:2:[email protected]
Format settings, CABAC : Yes
Format settings, ReFrames : 11 frames
Codec ID : V_MPEG4/ISO/AVC
Duration : 2h 10mn
Bit rate : 2 542 Kbps
Nominal bit rate : 2 800 Kbps
Width : 1 280 pixels
Height : 554 pixels
Display aspect ratio : 2.35:1
Frame rate mode : Constant
Frame rate : 23.976 fps
Color space : YUV
Chroma subsampling : 4:2:2
Bit depth : 8 bits
Scan type : Progressive
Bits/(Pixel*Frame) : 0.150
Stream size : 2.32 GiB (75%)
Writing library : x264 core 150 r2833M df79067
DURATION : 02:08:32.496000000

Audio #1
ID : 2
Format : AC-3
Format/Info : Audio Coding 3
Mode extension : CM (complete main)
Format settings, Endianness : Big
Codec ID : A_AC3
Duration : 2h 10mn
Bit rate mode : Constant
Bit rate : 384 Kbps
Channel(s) : 2 channels
Channel positions : Front: L R
Sampling rate : 44.1 KHz
Bit depth : 16 bits
Compression mode : Lossy
Stream size : 359 MiB (11%)
Title : Очищенный!
Language : Russian
Default : Yes
Forced : No
DURATION : 02:10:35.934000000

Audio #2
ID : 3
Format : AC-3
Format/Info : Audio Coding 3
Mode extension : CM (complete main)
Format settings, Endianness : Big
Codec ID : A_AC3
Duration : 2h 10mn
Bit rate mode : Constant
Bit rate : 384 Kbps
Channel(s) : 2 channels
Channel positions : Front: L R
Sampling rate : 44.1 KHz
Bit depth : 16 bits
Compression mode : Lossy
Stream size : 359 MiB (11%)
Language : English
Default : No
Forced : No
DURATION : 02:08:32.671000000
   
Торрент: Зарегистрирован [17 июн 2017, 13:57] Скачать торрент
Скачать торрент
О MediaGet
[ Размер 31.76 КБ / Просмотров 120 ]

Статус:
 
Приватный: Нет (DHT включён)
Размер: 3.08 ГБ (3 308 038 950 байт)
   
Аватара пользователя

Администратор
Администратор
 
Раздал: 2.33 ПБ
Скачал: 1.02 ПБ
Ратио: 2.281
Сообщения: 3723
Зарегистрирован: 07 май 2010, 17:29
Medals: 1
Лучший релиз за месяц (1)
  • Личное сообщение
  • ICQ

  • Похожие торренты
    Ответы
    Просмотры
    Последнее сообщение

Вернуться в Зарубежные фильмы (Rip's)

Кто сейчас на конференции

Зарегистрированные пользователи: SeGaWRX

Ресурс не предоставляет электронные версии произведений, а занимается лишь коллекционированием и каталогизацией ссылок, присылаемых и публикуемых на форуме нашими читателями. Если вы являетесь правообладателем какого-либо представленного материала и не желаете чтобы ссылка на него находилась в нашем каталоге, свяжитесь с нами и мы незамедлительно удалим её. Файлы для обмена на трекере предоставлены пользователями сайта, и администрация не несёт ответственности за их содержание. Просьба не заливать файлы, защищенные авторскими правами, а также файлы нелегального содержания!
cron