Могучие рейнджеры / Power Rangers (2017) WEB-DL 1080p | L скачать торрент

Мировая классика кино, Rip, Рипы, Зарубежные фильмы

Модератор: Модераторы видео

  • Статистика раздачи
Размер: 4.68 ГБ   |  Зарегистрирован: 17 июн 2017, 13:57   |   .torrent скачан: 14490 раз
Сидеров: 2047  [ 0 байт/сек ]     Личеров: 107  [ 0 байт/сек ]  
Список файлов : Кто скачал : Раздают : Скачивают : Кто благодарил : История : Не раздающие : Запрашивали сидеров : Внешние трекеры 
  

Могучие рейнджеры / Power Rangers (2017) WEB-DL 1080p | L

Сообщение Админ » 17 июн 2017, 13:57

Информация о фильме
Название: Могучие рейнджеры
Оригинальное название: Power Rangers
Год выхода: 2017
Жанр: фантастика, боевик, приключения
Режиссер: Дин Израэлайт
В ролях: Дакре Монтгомери, Наоми Скотт, АрДжей Сайлер, Луди Линь, Бекки Джи, Элизабет Бэнкс, Брайан Крэнстон, Билл Хейдер, Мэтт Шайвли, Коуди Кирсли

О фильме:
Пять обычных старшеклассников узнают, что их маленький город Энджел Гроув и весь мир находятся на грани уничтожения инопланетной угрозой. Избранные судьбой наши герои быстро понимают, что они единственные, кто может спасти планету.

Выпущено: США, Гонконг, Япония, Мексика, Канада, Новая Зеландия / Lionsgate
Продолжительность: 02:05:28
Озвучивание: Любительское (многоголосое) [@MUZOBOZ@]

ПРИМЕЧАНИЕ: ПРИСУТСТВУЕТ РЕКЛАМА!

Файл
Формат: MKV
Качество: WEB-DL 1080p
Видео: AVC/H.264, 1912x792 (2,40:1), ~4954 Kbps
Аудио: AC3, 2 ch, 384 Kbps



Общее
Уникальный идентификатор : 215967061781922511107076682235795995959 (0xA279BE3DAEF03C3CA2321CD18B5FFD37)
Полное имя : D:Zona DownloadsPower.Rangers.2017.P.WEB-DL.1O8Op_KOSHARA.mkv
Формат : Matroska
Версия формата : Version 2
Размер файла : 4,68 Гбайт
Продолжительность : 2 ч. 5 м.
Режим общего битрейта : Переменный
Общий поток : 5340 Кбит/сек
Дата кодирования : UTC 2017-06-15 18:30:37
Программа кодирования : mkvmerge v8.3.0 ('Over the Horizon') 64bit
Библиотека кодирования : libebml v1.3.1 + libmatroska v1.4.2

Видео
Идентификатор : 1
Формат : AVC
Формат/Информация : Advanced Video Codec
Профиль формата : [email protected]
Параметр CABAC формата : Да
Параметр ReFrames формата : 5 кадров
Идентификатор кодека : V_MPEG4/ISO/AVC
Продолжительность : 2 ч. 5 м.
Вид битрейта : Переменный
Битрейт : 4954 Кбит/сек
Максимальный битрейт : 5500 Кбит/сек
Ширина : 1912 пикселей
Высота : 792 пикселя
Соотношение сторон : 2,40:1
Режим частоты кадров : Постоянный
Частота кадров : 23,976 (24000/1001) кадра/сек
Стандарт вещания : Component
Цветовое пространство : YUV
Субдискретизация насыщенности : 4:2:0
Битовая глубина : 8 бит
Тип развёртки : Прогрессивная
Бит/(Пиксели*Кадры) : 0.136
Размер потока : 4,34 Гбайт (93%)
Default : Да
Forced : Нет
Цветовой диапазон : Limited
Основные цвета : BT.709
Характеристики трансфера : BT.709
Коэффициенты матрицы : BT.709

Аудио
Идентификатор : 2
Формат : AC-3
Формат/Информация : Audio Coding 3
Параметр Endianness формата : Big
Идентификатор кодека : A_AC3
Продолжительность : 2 ч. 5 м.
Вид битрейта : Постоянный
Битрейт : 384 Кбит/сек
Каналы : 2 канала
Расположение каналов : Front: L R
Частота : 48,0 КГц
Частота кадров : 31,250 кадров/сек (1536 spf)
Битовая глубина : 16 бит
Метод сжатия : С потерями
Размер потока : 345 Мбайт (7%)
ServiceKind/Str.ing : Complete Main
Default : Да
Forced : Нет
   
Торрент: Зарегистрирован [17 июн 2017, 13:57] Скачать торрент
Скачать торрент
О MediaGet
[ Размер 12.62 КБ / Просмотров 114 ]

Статус:
 
Приватный: Нет (DHT включён)
Размер: 4.68 ГБ (5 025 171 395 байт)
   
Аватара пользователя

Администратор
Администратор
 
Раздал: 2.33 ПБ
Скачал: 1.02 ПБ
Ратио: 2.281
Сообщения: 3702
Зарегистрирован: 07 май 2010, 17:29
Medals: 1
Лучший релиз за месяц (1)
  • Личное сообщение
  • ICQ

Вернуться в Зарубежные фильмы (Rip's)

Кто сейчас на конференции

Зарегистрированные пользователи: нет зарегистрированных пользователей

Ресурс не предоставляет электронные версии произведений, а занимается лишь коллекционированием и каталогизацией ссылок, присылаемых и публикуемых на форуме нашими читателями. Если вы являетесь правообладателем какого-либо представленного материала и не желаете чтобы ссылка на него находилась в нашем каталоге, свяжитесь с нами и мы незамедлительно удалим её. Файлы для обмена на трекере предоставлены пользователями сайта, и администрация не несёт ответственности за их содержание. Просьба не заливать файлы, защищенные авторскими правами, а также файлы нелегального содержания!
cron