Охотник с Уолл-стрит / The Headhunter's Calling (2016) WEB-DL 1080р | iTunes скачать торрент

Мировая классика кино, Rip, Рипы, Зарубежные фильмы

Модератор: Модераторы видео

  • Статистика раздачи
Размер: 4.13 ГБ   |  Зарегистрирован: 17 июн 2017, 13:57   |   .torrent скачан: 8682 раз
Сидеров: 2173  [ 0 байт/сек ]     Личеров: 209  [ 0 байт/сек ]  
Список файлов : Кто скачал : Раздают : Скачивают : Кто благодарил : История : Не раздающие : Запрашивали сидеров : Внешние трекеры 
  

Охотник с Уолл-стрит / The Headhunter's Calling (2016) WEB-DL 1080р | iTunes

Сообщение Админ » 17 июн 2017, 13:57

Производство: США, Канада / Zero Gravity Management
Жанр: Драма

Режиссер: Марк Уильямс
Актеры: Элисон Бри, Джерард Батлер, Уиллем Дефо, Гретхен Мол, Дастин Миллиган, Альфред Молина, Кэтлин Манро, Джулия Баттерз, Анупам Кхер, Синди Дэй

Описание:
Фильм повествует о нелёгких буднях беспринципного "охотника за головами" Дэйна Дженсена (Джерард Батлер), менеджера крупной рекрутинговой компании, чей босс уходит на пенсию и освобождает своё место для молодого и инициативного сотрудника. Получив желаемую должность, Дэйн полностью концетрируется на работе, но получает настоящий удар судьбы - у его десятилетнего сына диагностируют рак. С этого момента его мечта стать владельцем собственной крупной компании уже не кажется достижимой, герой оказывается перед выбором: семья или карьера.



Возраст: 18+ (зрителям, достигшим 18 лет. запрещено для детей)
Рейтинг MPAA: R (лицам до 17 лет обязательно присутствие взрослого)
Премьера (мир): 13 сентября 2016,
Премьера (РФ): 18 мая 2017

Продолжительность: 01:50:15
Качество видео: WEB-DL 1080р
Перевод: Дублированный (iTunes)
Субтитры: Отсутствуют

Видео: AVC, 1916x798 (2.40:1), 23.976 fps, 4596 Kbps (0.125 bit/pixel)
Аудио #1: AC-3, 48.0 KHz, 6 ch, 384 Kbps, CBR | Русский
Аудио #2: AC-3, 48.0 KHz, 6 ch, 384 Kbps, CBR | Английский

Общее
Уникальный идентификатор : 226964775781579432498956495545227226735 (0xAABFD3679F17749D916904376C0B2E6F)
Полное имя : C:NNMОхотник с Уолл-СтритOhotnik s Uol-Strit 2016 WEB-DL 1080p-LQ.mkv
Формат : Matroska
Версия формата : Version 4 / Version 2
Размер файла : 4,13 Гбайт
Продолжительность : 1 ч. 50 м.
Общий поток : 5366 Кбит/сек
Программа кодирования : mkvmerge v8.3.0 ('Over the Horizon') 64bit
Библиотека кодирования : libebml v1.3.1 + libmatroska v1.4.2

Видео
Идентификатор : 1
Формат : AVC
Формат/Информация : Advanced Video Codec
Профиль формата : [email protected]
Параметр CABAC формата : Да
Параметр ReFrames формата : 5 кадров
Идентификатор кодека : V_MPEG4/ISO/AVC
Продолжительность : 1 ч. 50 м.
Битрейт : 4596 Кбит/сек
Ширина : 1916 пикселей
Высота : 798 пикселей
Соотношение сторон : 2,40:1
Режим частоты кадров : Постоянный
Частота кадров : 23,976 (24000/1001) кадра/сек
Цветовое пространство : YUV
Субдискретизация насыщенности : 4:2:0
Битовая глубина : 8 бит
Тип развёртки : Прогрессивная
Бит/(Пиксели*Кадры) : 0.125
Размер потока : 3,54 Гбайт (86%)
Язык : English
Default : Да
Forced : Нет
Цветовой диапазон : Limited
Основные цвета : BT.709
Характеристики трансфера : BT.709
Коэффициенты матрицы : BT.709

Аудио #1
Идентификатор : 2
Формат : AC-3
Формат/Информация : Audio Coding 3
Расширение режима : CM (complete main)
Параметр Endianness формата : Big
Идентификатор кодека : A_AC3
Продолжительность : 1 ч. 50 м.
Вид битрейта : Постоянный
Битрейт : 384 Кбит/сек
Каналы : 6 каналов
Расположение каналов : Front: L C R, Side: L R, LFE
Частота : 48,0 КГц
Частота кадров : 31,250 кадров/сек (1536 spf)
Битовая глубина : 16 бит
Метод сжатия : С потерями
Размер потока : 303 Мбайт (7%)
Язык : Russian
Default : Да
Forced : Нет

Аудио #2
Идентификатор : 3
Формат : AC-3
Формат/Информация : Audio Coding 3
Расширение режима : CM (complete main)
Параметр Endianness формата : Big
Идентификатор кодека : A_AC3
Продолжительность : 1 ч. 50 м.
Вид битрейта : Постоянный
Битрейт : 384 Кбит/сек
Каналы : 6 каналов
Расположение каналов : Front: L C R, Side: L R, LFE
Частота : 48,0 КГц
Частота кадров : 31,250 кадров/сек (1536 spf)
Битовая глубина : 16 бит
Метод сжатия : С потерями
Размер потока : 303 Мбайт (7%)
Язык : English
Default : Нет
Forced : Нет

Меню
00:00:00.000 : en:Chapter 1
00:08:56.494 : en:Chapter 2
00:20:53.085 : en:Chapter 3
00:29:33.105 : en:Chapter 4
00:38:20.172 : en:Chapter 5
00:47:40.607 : en:Chapter 6
00:57:22.480 : en:Chapter 7
01:07:39.471 : en:Chapter 8
01:17:40.487 : en:Chapter 9
01:25:16.693 : en:Chapter 10
01:35:09.619 : en:Chapter 11
01:45:37.330 : en:Chapter 12
   
Торрент: Зарегистрирован [17 июн 2017, 13:57] Скачать торрент
Скачать торрент
О MediaGet
[ Размер 21.56 КБ / Просмотров 78 ]

Статус:
 
Приватный: Нет (DHT включён)
Размер: 4.13 ГБ (4 436 858 104 байт)
   
Аватара пользователя

Администратор
Администратор
 
Раздал: 2.33 ПБ
Скачал: 1.02 ПБ
Ратио: 2.281
Сообщения: 3721
Зарегистрирован: 07 май 2010, 17:29
Medals: 1
Лучший релиз за месяц (1)
  • Личное сообщение
  • ICQ

  • Похожие торренты
    Ответы
    Просмотры
    Последнее сообщение

Вернуться в Зарубежные фильмы (Rip's)

Кто сейчас на конференции

Зарегистрированные пользователи: нет зарегистрированных пользователей

Ресурс не предоставляет электронные версии произведений, а занимается лишь коллекционированием и каталогизацией ссылок, присылаемых и публикуемых на форуме нашими читателями. Если вы являетесь правообладателем какого-либо представленного материала и не желаете чтобы ссылка на него находилась в нашем каталоге, свяжитесь с нами и мы незамедлительно удалим её. Файлы для обмена на трекере предоставлены пользователями сайта, и администрация не несёт ответственности за их содержание. Просьба не заливать файлы, защищенные авторскими правами, а также файлы нелегального содержания!
cron