Женщины ХХ века / 20th Century Women (2016) BDRip-AVC от R.G.Resident | iTunes скачать торрент

Мировая классика кино, Rip, Рипы, Зарубежные фильмы

Модератор: Модераторы видео

  • Статистика раздачи
Размер: 2.91 ГБ   |  Зарегистрирован: 08 июн 2017, 01:49   |   .torrent скачан: 140 раз
Сидеров: 34  [ 0 байт/сек ]     Личеров: 4  [ 0 байт/сек ]  
Список файлов : Кто скачал : Раздают : Скачивают : Кто благодарил : История : Не раздающие : Запрашивали сидеров : Внешние трекеры 
  

Женщины ХХ века / 20th Century Women (2016) BDRip-AVC от R.G.Resident | iTunes

Сообщение Админ » 08 июн 2017, 01:49

Информация о фильме
Название: Женщины ХХ века
Оригинальное название: 20th Century Women
Год выпуска: 2016
Страна: США
Жанр: драма, Комедия

Перевод: Профессиональный многоголосый [iTunes]
Субтитры: русские (Forced), русские (Full), английские (Full)
Продолжительность: 01:58:44

Режиссер: Майк Миллс
В ролях: Аннетт Бенинг (Dorothea), Эль Фаннинг (Julie), Грета Гервиг (Abbie), Билли Крудап (William), Лукас Джейд Зуманн (Jamie), Элисон Эллиотт (Julie's Mother), Теа Гилл (Abbie's Mother), Виталий Эндрю ЛеБо (Young Jamie), Olivia Hone (Julie's Sister), Валид Зуэйтер (Charlie), Каррен Уолтерс (Matt), Даррел Бритт-Гибсон (Julian)


Описание:
История о трех женщинах, которые познают любовь и свободу в Южной Калифорнии в конце 1970-х годов.

Рейтинг:

MPAA: R - Лицам до 17 лет обязательно присутствие взрослого

Качество: BDRip-AVC
Формат: MKV
Видео: AVC, 1024x514 (1.992), 2676 kbps, 23,976 fps, 0,212 bpp
Аудио №1: русский / AC3 / 5.1 / 48 kHz / 384 kbps /
Аудио №2: английский / AC3 / 5.1 / 48 kHz / 448 kbps /
Навигация по главам: есть


Релиз от:


General
Unique ID : 234881637988335400460675300239080421812 (0xB0B48ED90329C583B611BDEA43CFF9B4)
Complete name : D:download20th.Century.Women.2016.BDRip-AVC by schultz R.G.Resident.mkv
Format : Matroska
Format version : Version 4 / Version 2
File size : 2.91 GiB
Duration : 1 h 58 min
Overall bit rate : 3 510 kb/s
Encoded date : UTC 2017-06-06 16:21:36
Writing application : mkvmerge v8.9.0 ('Father Daughter') 64bit
Writing library : libebml v1.3.3 + libmatroska v1.4.4

Video
ID : 1
Format : AVC
Format/Info : Advanced Video Codec
Format profile : [email protected]
Format settings, CABAC : Yes
Format settings, ReFrames : 10 frames
Codec ID : V_MPEG4/ISO/AVC
Duration : 1 h 58 min
Bit rate : 2 676 kb/s
Width : 1 024 pixels
Height : 514 pixels
Display aspect ratio : 1.992
Frame rate mode : Constant
Frame rate : 23.976 (23976/1000) FPS
Color space : YUV
Chroma subsampling : 4:2:0
Bit depth : 8 bits
Scan type : Progressive
Bits/(Pixel*Frame) : 0.212
Stream size : 2.22 GiB (76%)
Writing library : x264 core 146 r2538 121396c
Encoding settings : cabac=1 / ref=10 / deblock=1:-3:-3 / analyse=0x3:0x113 / me=umh / subme=11 / psy=1 / psy_rd=1.00:0.00 / mixed_ref=1 / me_range=48 / chroma_me=1 / trellis=2 / 8x8dct=1 / cqm=0 / deadzone=21,11 / fast_pskip=0 / chroma_qp_offset=-2 / threads=12 / lookahead_threads=3 / sliced_threads=0 / nr=0 / decimate=0 / interlaced=0 / bluray_compat=0 / constrained_intra=0 / bframes=11 / b_pyramid=2 / b_adapt=2 / b_bias=0 / direct=3 / weightb=1 / open_gop=0 / weightp=2 / keyint=240 / keyint_min=23 / scenecut=40 / intra_refresh=0 / rc_lookahead=40 / rc=2pass / mbtree=0 / bitrate=2676 / ratetol=1.0 / qcomp=0.60 / qpmin=0 / qpmax=69 / qpstep=4 / cplxblur=20.0 / qblur=0.5 / vbv_maxrate=50000 / vbv_bufsize=62500 / nal_hrd=none / filler=0 / ip_ratio=1.40 / pb_ratio=1.30 / aq=1:1.00
Language : English
Default : Yes
Forced : No

Audio #1
ID : 2
Format : AC-3
Format/Info : Audio Coding 3
Mode extension : CM (complete main)
Format settings, Endianness : Big
Codec ID : A_AC3
Duration : 1 h 58 min
Bit rate mode : Constant
Bit rate : 384 kb/s
Channel(s) : 6 channels
Channel positions : Front: L C R, Side: L R, LFE
Sampling rate : 48.0 kHz
Frame rate : 31.250 FPS (1536 spf)
Compression mode : Lossy
Stream size : 326 MiB (11%)
Language : Russian
Default : Yes
Forced : No

Audio #2
ID : 3
Format : AC-3
Format/Info : Audio Coding 3
Mode extension : CM (complete main)
Format settings, Endianness : Big
Codec ID : A_AC3
Duration : 1 h 58 min
Bit rate mode : Constant
Bit rate : 448 kb/s
Channel(s) : 6 channels
Channel positions : Front: L C R, Side: L R, LFE
Sampling rate : 48.0 kHz
Frame rate : 31.250 FPS (1536 spf)
Compression mode : Lossy
Stream size : 380 MiB (13%)
Language : English
Default : No
Forced : No

Text #1
ID : 4
Format : UTF-8
Codec ID : S_TEXT/UTF8
Codec ID/Info : UTF-8 Plain Text
Duration : 1 h 54 min
Bit rate : 0 b/s
Count of elements : 4
Stream size : 180 Bytes (0%)
Title : Forced
Language : Russian
Default : Yes
Forced : No

Text #2
ID : 5
Format : UTF-8
Codec ID : S_TEXT/UTF8
Codec ID/Info : UTF-8 Plain Text
Duration : 1 h 57 min
Bit rate : 83 b/s
Count of elements : 1414
Stream size : 72.2 KiB (0%)
Title : Full
Language : Russian
Default : No
Forced : No

Text #3
ID : 6
Format : UTF-8
Codec ID : S_TEXT/UTF8
Codec ID/Info : UTF-8 Plain Text
Duration : 1 h 50 min
Bit rate : 56 b/s
Count of elements : 1554
Stream size : 45.5 KiB (0%)
Title : Full
Language : English
Default : No
Forced : No

Menu
00:00:00.000 : en:00:00:00.000
00:07:53.056 : en:00:07:53.056
00:15:01.109 : en:00:15:01.109
00:23:27.323 : en:00:23:27.323
00:34:07.128 : en:00:34:07.128
00:40:13.911 : en:00:40:13.911
00:48:06.175 : en:00:48:06.175
00:56:40.439 : en:00:56:40.439
01:02:24.532 : en:01:02:24.532
01:07:19.911 : en:01:07:19.911
01:16:52.149 : en:01:16:52.149
01:21:51.198 : en:01:21:51.198
01:27:41.256 : en:01:27:41.256
01:35:06.159 : en:01:35:06.159
01:40:34.904 : en:01:40:34.904
01:48:43.767 : en:01:48:43.767


   
Торрент: Зарегистрирован [08 июн 2017, 01:49] Скачать торрент
Скачать торрент
О MediaGet
[ Размер 15.58 КБ / Просмотров 74 ]

Статус:
 
Приватный: Нет (DHT включён)
Размер: 2.91 ГБ (3 125 486 322 байт)
   
Аватара пользователя

Администратор
Администратор
 
Раздал: 2.33 ПБ
Скачал: 1.02 ПБ
Ратио: 2.281
Сообщения: 3723
Зарегистрирован: 07 май 2010, 17:29
Medals: 1
Лучший релиз за месяц (1)
  • Личное сообщение
  • ICQ

Вернуться в Зарубежные фильмы (Rip's)

Кто сейчас на конференции

Зарегистрированные пользователи: нет зарегистрированных пользователей

Ресурс не предоставляет электронные версии произведений, а занимается лишь коллекционированием и каталогизацией ссылок, присылаемых и публикуемых на форуме нашими читателями. Если вы являетесь правообладателем какого-либо представленного материала и не желаете чтобы ссылка на него находилась в нашем каталоге, свяжитесь с нами и мы незамедлительно удалим её. Файлы для обмена на трекере предоставлены пользователями сайта, и администрация не несёт ответственности за их содержание. Просьба не заливать файлы, защищенные авторскими правами, а также файлы нелегального содержания!
cron