Великая стена / The Great Wall (2016) BDRemux 1080p от ExKinoRay | iTunes скачать торрент

Мировая классика кино, Rip, Рипы, Зарубежные фильмы

Модератор: Модераторы видео

  • Статистика раздачи
Размер: 25.92 ГБ   |  Зарегистрирован: 10 май 2017, 21:25   |   .torrent скачан: 0 раз
Сидеров: 0  [ 0 байт/сек ]     Личеров: 0  [ 0 байт/сек ]  
Список файлов : Кто скачал : Раздают : Скачивают : Кто благодарил : История : Не раздающие : Запрашивали сидеров : Внешние трекеры 
  

Великая стена / The Great Wall (2016) BDRemux 1080p от ExKinoRay | iTunes

Сообщение Админ » 10 май 2017, 21:25

Информация о фильме
Название: Великая стена
Оригинальное название: The Great Wall
Год выхода: 2016
Жанр: Фэнтези, боевик, триллер, детектив, приключения
Режиссер: Имоу Чжан
В ролях: Мэтт Дэймон, Тянь Цзин, Педро Паскаль, Лу Хан, Уиллем Дефо, Энди Лау, Эдди Пэн, Нуман Акар, Кенни Лин, Ханьюй Чжан, Вики Юй, Лю Бин, Чжэн Кай, Джонни Чикко, Чэни Чэнь, Кэрри Ван

О фильме:
На протяжении многих столетий каждые 60 лет на Великую стену набегают мифические пожиратели плоти, чередуясь с монголами и опиумными караванами. Двое европейских наемников из отсталых стран невольно оказываются втянутыми в круговорот веществ внутри пищевой цепи. Теперь им нужно решить для себя сложную нравственную дилемму - без шума и пыли вывезти пригоршню взрывающегося черного порошка, или все-таки помочь разноцветным войскам Поднебесной остановить вторжение орд кошмарных тварей


Страна: Китай, США
Студия: Atlas Entertainment, China Film Group Corporation, Legendary Pictures
Продолжительность: 01:43:03
Перевод: Дублированный | iTunes

Файл
Качество: BDRemux 1080p
Видео: MPEG-4 AVC, 1920x1080, 30.6 Mbit/s, 23.976 fps
Звук:
Аудио #01: 48 kHz, AC3, 5.1, 384 Kbps | Дублированный | iTunes | RUS |
Аудио #02: 48 kHz, TrueHD, 7.1, 4915 Kbps | Оригинал | ENG |
Субтитры: Английские



General
Unique ID : 213562643032729466143453945493868505070 (0xA0AAAB3E7790BF6C97FD7D7E7E87E7EE)
Complete name : F:VideoThe.Great.Wall.2016.BDREMUX.1080p.ExKinoRay.mkv
Format : Matroska
Format version : Version 4 / Version 2
File size : 25.9 GiB
Duration : 1 h 43 min
Overall bit rate mode : Variable
Overall bit rate : 36.0 Mb/s
Encoded date : UTC 2017-05-10 15:48:16
Writing application : mkvmerge v11.0.0 ('Alive') 64bit
Writing library : libebml v1.3.4 + libmatroska v1.4.5

Video
ID : 1
Format : AVC
Format/Info : Advanced Video Codec
Format profile : [email protected]
Format settings, CABAC : Yes
Format settings, ReFrames : 4 frames
Codec ID : V_MPEG4/ISO/AVC
Duration : 1 h 43 min
Bit rate mode : Variable
Bit rate : 30.6 Mb/s
Maximum bit rate : 32.0 Mb/s
Width : 1 920 pixels
Height : 1 080 pixels
Display aspect ratio : 16:9
Frame rate mode : Constant
Frame rate : 23.976 (24000/1001) FPS
Color space : YUV
Chroma subsampling : 4:2:0
Bit depth : 8 bits
Scan type : Progressive
Bits/(Pixel*Frame) : 0.616
Stream size : 22.1 GiB (85%)
Language : English
Default : No
Forced : No

Audio #1
ID : 2
Format : AC-3
Format/Info : Audio Coding 3
Format settings, Endianness : Big
Codec ID : A_AC3
Duration : 1 h 43 min
Bit rate mode : Constant
Bit rate : 384 kb/s
Channel(s) : 6 channels
Channel positions : Front: L C R, Side: L R, LFE
Sampling rate : 48.0 kHz
Frame rate : 31.250 FPS (1536 spf)
Bit depth : 16 bits
Compression mode : Lossy
Stream size : 283 MiB (1%)
Title : iTunes
Language : Russian
Service kind : Complete Main
Default : Yes
Forced : No

Audio #2
ID : 3
Format : TrueHD
Format profile : TrueHD+Atmos / TrueHD
Codec ID : A_TRUEHD
Duration : 1 h 43 min
Bit rate mode : Variable
Bit rate : 4 915 kb/s
Maximum bit rate : 7 719 kb/s
Channel(s) : Object Based / 8 channels
Channel positions : Object Based / Front: L C R, Side: L R, Back: L R, LFE
Sampling rate : / 48.0 kHz
Frame rate : 1 200.000 FPS (40 spf)
Compression mode : Lossless
Stream size : 3.54 GiB (14%)
Title : Original
Language : English
Default : No
Forced : No

Text
ID : 4
Format : UTF-8
Codec ID : S_TEXT/UTF8
Codec ID/Info : UTF-8 Plain Text
Duration : 1 h 29 min
Bit rate : 32 b/s
Count of elements : 867
Stream size : 21.2 KiB (0%)
Title : SDH
Language : English
Default : No
Forced : No

Menu
00:00:00.000 : en:00:00:00.000
00:05:58.358 : en:00:05:58.358
00:11:47.540 : en:00:11:47.540
00:16:53.679 : en:00:16:53.679
00:20:13.254 : en:00:20:13.254
00:25:11.009 : en:00:25:11.009
00:28:55.317 : en:00:28:55.317
00:33:57.744 : en:00:33:57.744
00:37:54.147 : en:00:37:54.147
00:42:42.935 : en:00:42:42.935
00:46:18.943 : en:00:46:18.943
00:50:27.691 : en:00:50:27.691
00:56:46.069 : en:00:56:46.069
01:01:58.048 : en:01:01:58.048
01:07:12.820 : en:01:07:12.820
01:12:08.533 : en:01:12:08.533
01:18:20.863 : en:01:18:20.863
01:23:25.083 : en:01:23:25.083
01:27:26.158 : en:01:27:26.158
01:31:14.386 : en:01:31:14.386


Релиз от: Автор релиза: Подпишись на меня:
   
Торрент: Зарегистрирован [10 май 2017, 21:25] За каждые 2 ГБ. аплоада (сидирования) этого торрента начисляется бонус: 0.001 Скачать торрент
Скачать торрент
О MediaGet
[ Размер 130.58 КБ / Просмотров 75 ]

Статус:
 
Приватный: Нет (DHT включён)
Размер: 25.92 ГБ (27 826 897 994 байт)
   
Аватара пользователя

Администратор
Администратор
 
Раздал: 2.33 ПБ
Скачал: 1.02 ПБ
Ратио: 2.281
Сообщения: 3695
Зарегистрирован: 07 май 2010, 17:29
Medals: 1
Лучший релиз за месяц (1)
  • Личное сообщение
  • ICQ

Re: Великая стена / The Great Wall (2016) BDRemux 1080p от ExKinoRay | iTunes

Сообщение MadaGT » 12 май 2017, 14:26

Не любитель сказок, но на безрыбье... огромное спасибо за раздачу в FHD!
Прохожий
Прохожий
 
Раздал: 71.72 ГБ
Скачал: 47.41 ГБ
Ратио: 1.519
Сообщения: 5
Зарегистрирован: 12 фев 2011, 00:08


Вернуться в Зарубежные фильмы (Rip's)

Кто сейчас на конференции

Зарегистрированные пользователи: fas28

Ресурс не предоставляет электронные версии произведений, а занимается лишь коллекционированием и каталогизацией ссылок, присылаемых и публикуемых на форуме нашими читателями. Если вы являетесь правообладателем какого-либо представленного материала и не желаете чтобы ссылка на него находилась в нашем каталоге, свяжитесь с нами и мы незамедлительно удалим её. Файлы для обмена на трекере предоставлены пользователями сайта, и администрация не несёт ответственности за их содержание. Просьба не заливать файлы, защищенные авторскими правами, а также файлы нелегального содержания!
cron