Бета-тест / Beta Test (2016) WEB-DLRip от Portablius | Line скачать торрент

Мировая классика кино, Rip, Рипы, Зарубежные фильмы

Модератор: Модераторы видео

  • Статистика раздачи
Размер: 743.84 МБ   |  Зарегистрирован: 01 янв 2017, 22:43   |   .torrent скачан: 995 раз
Сидеров: 73  [ 0 байт/сек ]     Личеров: 3  [ 0 байт/сек ]  
Список файлов : Кто скачал : Раздают : Скачивают : Кто благодарил : История : Не раздающие : Запрашивали сидеров : Внешние трекеры 
  

Бета-тест / Beta Test (2016) WEB-DLRip от Portablius | Line

Сообщение Админ » 01 янв 2017, 22:44

Информация о фильме
Название: Бета-тест
Оригинальное название: Beta Test
Год выхода: 2016
Жанр: фантастика, боевик, триллер
Режиссер: Николас Гини
В ролях: Ману Беннетт, Лоренц Тейт, Линден Эшби, Кивон Стоувер, Брэнди Хейдрик, Сара Коутс, Юдзи Окумото, Е.М. Скотт, Edi Zanidache, Билл Сорис

О фильме: Геймер Макс Трой обнаруживает что события в новой видеоигре происходят в реальном мире, они должны объединить свои силы с главным героем игры и разгадать заговор прежде, чем зловещий сюжет игры разрушит город.



Страна: США
Продолжительность: 01:28:00
Перевод: Профессиональный (многоголосый, закадровый) [Чистый звук]
Субтитры: Нет

Семпл

Файл
Кодек: XviD
Качество: WEB-DLRip
Видео: 704x304 (2.32:1), 23.976 fps, XviD build 73 ~1044 kbps avg, 0.20 bit/pixel
Звук: 48 kHz, MPEG Layer 3, 2 ch, ~128.00 kbps avg

Общее
Полное имя : Beta.Test.2016.WEB-DLRip.ot.Portablius.avi
Формат : AVI
Формат/Информация : Audio Video Interleave
Размер файла : 744 Мбайт
Продолжительность : 1 ч. 28 м.
Общий поток : 1182 Кбит/сек
Программа кодирования : VirtualDubMod 1.5.10.3 | http://www.virtualdub-fr.org || (build 2550/release)
Библиотека кодирования : VirtualDubMod build 2550/release

Видео
Идентификатор : 0
Формат : MPEG-4 Visual
Профиль формата : Advanced [email protected]
Параметр BVOP формата : 1
Параметр QPel формата : Нет
Параметр GMC формата : Без точки перехода
Параметр матрицы формата : Выборочная
Идентификатор кодека : XVID
Идентификатор кодека/Подсказка : XviD
Продолжительность : 1 ч. 28 м.
Битрейт : 1044 Кбит/сек
Ширина : 704 пикселя
Высота : 304 пикселя
Соотношение сторон : 2,35:1
Частота кадров : 23,976 (24000/1001) кадра/сек
Частота кадров в оригинале : 23,976 (23976/1000) кадра/сек
Цветовое пространство : YUV
Субдискретизация насыщенности : 4:2:0
Битовая глубина : 8 бит
Тип развёртки : Прогрессивная
Метод сжатия : С потерями
Бит/(Пиксели*Кадры) : 0.204
Размер потока : 657 Мбайт (88%)
Библиотека кодирования : XviD 73

Аудио
Идентификатор : 1
Формат : MPEG Audio
Версия формата : Version 1
Профиль формата : Layer 3
Идентификатор кодека : 55
Идентификатор кодека/Подсказка : MP3
Продолжительность : 1 ч. 28 м.
Вид битрейта : Постоянный
Битрейт : 128 Кбит/сек
Каналы : 2 канала
Частота : 48,0 КГц
Метод сжатия : С потерями
Размер потока : 80,6 Мбайт (11%)
Выравнивание : Соединение по промежуткам
Продолжительность промежутка : 42 мс. (1,00 видеокадр)
Время предзагрузки промежутка : 504 мс.
Библиотека кодирования : LAME3.99r
Настройки программы : -m s -V 4 -q 2 -lowpass 17 -b 128








   
Торрент: Зарегистрирован [01 янв 2017, 22:43] Скачать торрент
Скачать торрент
О MediaGet
[ Размер 15.18 КБ / Просмотров 82 ]

Статус:
 
Приватный: Нет (DHT включён)
Размер: 743.84 МБ (779 976 704 байт)
   
Аватара пользователя

Администратор
Администратор
 
Раздал: 2.33 ПБ
Скачал: 1.02 ПБ
Ратио: 2.281
Сообщения: 3702
Зарегистрирован: 07 май 2010, 17:29
Medals: 1
Лучший релиз за месяц (1)
  • Личное сообщение
  • ICQ

  • Похожие торренты
    Ответы
    Просмотры
    Последнее сообщение

Вернуться в Зарубежные фильмы (Rip's)

Кто сейчас на конференции

Зарегистрированные пользователи: нет зарегистрированных пользователей

Ресурс не предоставляет электронные версии произведений, а занимается лишь коллекционированием и каталогизацией ссылок, присылаемых и публикуемых на форуме нашими читателями. Если вы являетесь правообладателем какого-либо представленного материала и не желаете чтобы ссылка на него находилась в нашем каталоге, свяжитесь с нами и мы незамедлительно удалим её. Файлы для обмена на трекере предоставлены пользователями сайта, и администрация не несёт ответственности за их содержание. Просьба не заливать файлы, защищенные авторскими правами, а также файлы нелегального содержания!
cron