Терминатор 2: Судный день / Terminator 2: Judgment Day (1991) BDRip 1080p | Специальная расширенная версия | P, A скачать торрент

Мировая классика кино, Rip, Рипы, Зарубежные фильмы

Модератор: Модераторы видео

  • Статистика раздачи
Размер: 13 ГБ   |  Зарегистрирован: 16 ноя 2016, 19:09   |   .torrent скачан: 1 раз
Сидеров: 16  [ 0 байт/сек ]     Личеров: 0  [ 0 байт/сек ]  
Список файлов : Кто скачал : Раздают : Скачивают : Кто благодарил : История : Не раздающие : Запрашивали сидеров : Внешние трекеры 
  

Терминатор 2: Судный день / Terminator 2: Judgment Day (1991) BDRip 1080p | Специальная расширенная версия | P, A

Сообщение Админ » 16 ноя 2016, 19:09

Информация о фильме
Название: Терминатор 2: Судный день
Оригинальное название: Terminator 2: Judgment Day
Год выхода: 1991
Жанр: Фантастика, боевик, триллер
Режиссер: Джеймс Кэмерон
В ролях: Арнольд Шварценеггер, Линда Хэмилтон, Эдвард Ферлонг, Роберт Патрик, Эрл Боэн, Джо Мортон, С. Эпата Меркерсон, Кастуло Герра, Дэнни Кукси, Дженетт Голдстин

О фильме:
Прошло более десяти лет с тех пор, как киборг-терминатор из 2029 года пытался уничтожить Сару Коннор — женщину, чей будущий сын выиграет войну человечества против машин.
Теперь у Сары родился сын Джон и время, когда он поведёт за собой выживших людей на борьбу с машинами, неумолимо приближается. Именно в этот момент из постапокалиптического будущего прибывает новый терминатор — практически неуязвимый и способный принимать любое обличье. Цель нового терминатора уже не Сара, а уничтожение молодого Джона Коннора.
Однако шансы Джона на спасение существенно повышаются, когда на помощь приходит перепрограммированный сопротивлением терминатор предыдущего поколения. Оба киборга вступают в смертельный бой, от исхода которого зависит судьба человечества.



Страна: США, Франция
Студия: Carolco Pictures Inc., Pacific Western, Canal+ [fr]
Продолжительность: 02:36:08
Перевод: Профессиональный (многоголосый, закадровый) Киномания + Авторский (одноголосый, закадровый) Андрей Гаврилов + Авторский (одноголосый, закадровый) Дмитрий Пучков |ГОБЛИН| + Оригинал

Файл
Кодек: x264
Качество: BDRip 1080p (источник: Blu-ray Remux / 1080p)
Видео: 1920х816 (2.35:1), 9355 Kbps, 23.976 fps, 0.249 bit/pixel
Аудио #1: 48.0 kHz, AC3 Dolby Digital, 3/2 (L,C,R,l,r) + LFE ch, 640 kbps [Многоголосый, Киномания]
Аудио #2: 48.0 kHz, AC3 Dolby Digital, 3/2 (L,C,R,l,r) + LFE ch, 640 kbps [Авторский, А. Гаврилов]
Аудио #3: 48.0 kHz, AC3 Dolby Digital, 3/2 (L,C,R,l,r) + LFE ch, 640 kbps [Авторский, Д. Пучков |ГОБЛИН|] присутствует ненормативная лексика
Аудио #4: 48.0 kHz, AC3 Dolby Digital, 3/2 (L,C,R,l,r) + LFE ch, 640 kbps [Английский]
Субтитры: Русские, английские

Семпл



x264 [info]: frame I:1849 Avg QP:15.30 size:148258
x264 [info]: frame P:66083 Avg QP:17.61 size: 75952
x264 [info]: frame B:156678 Avg QP:19.46 size: 36124
General
Unique ID : 239646595659678445841165809322822906230 (0xB44A416629E48F6581CF64989CF2B176)
Complete name : E:T2.1991.x264.BDRip.1080p.[Extended.Special.Edition].mkv
Format : Matroska
Format version : Version 2
File size : 13.0 GiB
Duration : 2h 36mn
Overall bit rate : 11.9 Mbps
Encoded date : UTC 2013-08-30 23:13:04
Writing application : mkvmerge v5.8.0 ('No Sleep / Pillow') built on Sep 2 2012 15:37:04
Writing library : libebml v1.2.3 + libmatroska v1.3.0

Video
ID : 1
Format : AVC
Format/Info : Advanced Video Codec
Format profile : [email protected]
Format settings, CABAC : Yes
Format settings, ReFrames : 5 frames
Codec ID : V_MPEG4/ISO/AVC
Duration : 2h 36mn
Bit rate : 9 355 Kbps
Width : 1 920 pixels
Height : 816 pixels
Display aspect ratio : 2.35:1
Frame rate mode : Constant
Frame rate : 23.976 fps
Color space : YUV
Chroma subsampling : 4:2:0
Bit depth : 8 bits
Scan type : Progressive
Bits/(Pixel*Frame) : 0.249
Stream size : 9.95 GiB (77%)
Writing library : x264 core 135 r2345 f0c1c53
Encoding settings : cabac=1 / ref=5 / deblock=1:-3:-3 / analyse=0x3:0x133 / me=tesa / subme=11 / psy=1 / psy_rd=1.00:0.03 / mixed_ref=1 / me_range=32 / chroma_me=1 / trellis=2 / 8x8dct=1 / cqm=0 / deadzone=21,11 / fast_pskip=0 / chroma_qp_offset=-3 / threads=12 / lookahead_threads=1 / sliced_threads=0 / nr=0 / decimate=0 / interlaced=0 / bluray_compat=0 / constrained_intra=0 / bframes=4 / b_pyramid=2 / b_adapt=2 / b_bias=0 / direct=3 / weightb=0 / open_gop=0 / weightp=2 / keyint=240 / keyint_min=23 / scenecut=40 / intra_refresh=0 / rc=2pass / mbtree=0 / bitrate=9355 / ratetol=1.0 / qcomp=0.60 / qpmin=0 / qpmax=69 / qpstep=4 / cplxblur=20.0 / qblur=0.5 / ip_ratio=1.40 / pb_ratio=1.30 / aq=1:0.90
Language : English
Default : Yes
Forced : No

Audio #1
ID : 2
Format : AC-3
Format/Info : Audio Coding 3
Mode extension : CM (complete main)
Format settings, Endianness : Big
Codec ID : A_AC3
Duration : 2h 36mn
Bit rate mode : Constant
Bit rate : 640 Kbps
Channel(s) : 6 channels
Channel positions : Front: L C R, Side: L R, LFE
Sampling rate : 48.0 KHz
Bit depth : 16 bits
Compression mode : Lossy
Stream size : 715 MiB (5%)
Title : AC3 5.1ch 640 kbps - Многоголосый, Киномания
Language : Russian
Default : Yes
Forced : No

Audio #2
ID : 3
Format : AC-3
Format/Info : Audio Coding 3
Mode extension : CM (complete main)
Format settings, Endianness : Big
Codec ID : A_AC3
Duration : 2h 36mn
Bit rate mode : Constant
Bit rate : 640 Kbps
Channel(s) : 6 channels
Channel positions : Front: L C R, Side: L R, LFE
Sampling rate : 48.0 KHz
Bit depth : 16 bits
Compression mode : Lossy
Stream size : 715 MiB (5%)
Title : AC3 5.1ch 640 kbps - Авторский, А. Гаврилов
Language : Russian
Default : No
Forced : No

Audio #3
ID : 4
Format : AC-3
Format/Info : Audio Coding 3
Mode extension : CM (complete main)
Format settings, Endianness : Big
Codec ID : A_AC3
Duration : 2h 36mn
Bit rate mode : Constant
Bit rate : 640 Kbps
Channel(s) : 6 channels
Channel positions : Front: L C R, Side: L R, LFE
Sampling rate : 48.0 KHz
Bit depth : 16 bits
Compression mode : Lossy
Stream size : 715 MiB (5%)
Title : AC3 5.1ch 640 kbps - Авторский, Д. Пучков |ГОБЛИН|
Language : Russian
Default : No
Forced : No

Audio #4
ID : 5
Format : AC-3
Format/Info : Audio Coding 3
Mode extension : CM (complete main)
Format settings, Endianness : Big
Codec ID : A_AC3
Duration : 2h 36mn
Bit rate mode : Constant
Bit rate : 640 Kbps
Channel(s) : 6 channels
Channel positions : Front: L C R, Side: L R, LFE
Sampling rate : 48.0 KHz
Bit depth : 16 bits
Compression mode : Lossy
Stream size : 715 MiB (5%)
Title : AC3 5.1ch 640 kbps - Английский
Language : English
Default : No
Forced : No

Text #1
ID : 6
Format : UTF-8
Codec ID : S_TEXT/UTF8
Codec ID/Info : UTF-8 Plain Text
Title : Русские
Language : Russian
Default : No
Forced : No

Text #2
ID : 7
Format : UTF-8
Codec ID : S_TEXT/UTF8
Codec ID/Info : UTF-8 Plain Text
Title : Английские
Language : English
Default : No
Forced : No

Menu
00:00:00.000 : en:Prologue
00:00:52.092 : en:Future War
00:03:38.301 : en:Maint Titles
00:05:36.836 : en:A Terminator Arrives
00:06:48.408 : en:Biker Bar
00:09:11.217 : en:Bad to the Bone
00:10:33.758 : en:T-1000 Arrives
00:12:31.500 : en:Meet John Conner
00:13:38.651 : en:Sarah Conner
00:15:31.722 : en:Ain't No Trouble
00:16:31.907 : en:T-1000 Visits Voights
00:17:41.310 : en:Easy Money
00:19:12.150 : en:Not Much Time Time Left in the World
00:22:29.222 : en:Sanity Review
00:25:56.471 : en:Cyberdyne Systems
00:27:29.981 : en:Model Citizen
00:28:53.189 : en:Target Acquired
00:29:46.659 : en:The Galleria
00:31:23.047 : en:Zeroed in the Corridor
00:33:59.579 : en:In the Streets
00:35:10.233 : en:Canal Chase
00:38:50.327 : en:Time Out
00:41:33.407 : en:Never This Nice
00:44:16.652 : en:T-1000's Search
00:46:12.768 : en:Photos
00:47:28.136 : en:Mission Parameters
00:51:14.696 : en:Pescadero State Hospital
00:54:26.179 : en:Lewis the Guard
00:56:10.742 : en:Sarah Breaks Out
00:57:48.298 : en:215 Bones
00:58:31.758 : en:I Swear
00:59:40.743 : en:A Syringe-Point
01:01:50.665 : en:"Come with Me If You Want to Live"
01:03:18.127 : en:Escape From Pescadero
01:07:51.358 : en:Security Car
01:09:26.620 : en:Nice Bike
01:10:07.536 : en:Night Repairs
01:11:30.411 : en:Resetting the Switch
01:14:56.658 : en:Heading South
01:15:35.113 : en:No Problemo
01:16:24.955 : en:Smile?
01:17:52.959 : en:Detailed Files
01:20:15.268 : en:Meet the Pilot
01:22:35.783 : en:Salceda's Camp
01:25:05.390 : en:Weapons Cache
01:27:51.890 : en:Fathers and Sons
01:32:12.151 : en:Nuclear Nightmare
01:34:29.121 : en:Sarah's Decision
01:34:59.401 : en:No Fate
01:36:42.504 : en:Sarah's Solution
01:43:01.842 : en:Changing the Way It Goes
01:45:50.886 : en:Target: Cyberdyne
01:47:52.381 : en:All the Way
01:49:52.502 : en:T-1000 at Dyson's
01:50:32.167 : en:A Lot of Years
01:51:22.759 : en:Company
01:53:30.887 : en:Terminator Serves Notice
01:55:20.121 : en:In the Vault
01:55:52.612 : en:S.W.a.T. Offensive
01:58:13.753 : en:Death of Dyson and Cyberdyne
01:59:44.760 : en:"I'll Be Back"
02:01:25.194 : en:Borrowing the S.W.a.T. Van
02:02:37.808 : en:T-1000 Acquires a Helicopter
02:03:36.367 : en:Freeway Chase
02:06:15.359 : en:Tanker Chase
02:10:20.145 : en:Fire and Ice
02:13:49.437 : en:Glitching
02:14:28.768 : en:Sticking Together
02:15:01.926 : en:Hand to Hand
02:16:11.663 : en:Deepter Into the Steel Mill
02:16:46.781 : en:Sarahs' Stand
02:18:43.231 : en:Terminator Skewered
02:20:43.058 : en:Sarah and John
02:21:15.674 : en:Alternate Power
02:21:51.502 : en:Two Sarah's
02:23:22.176 : en:Terminated
02:25:35.393 : en:One More Chip
02:29:26.373 : en:The Unknown Future
02:31:24.116 : en:End Titles
02:35:25.440 : en:Restoration Credits
02:36:07.983 : en:End
   
Торрент: Зарегистрирован [16 ноя 2016, 19:09] За каждые 2 ГБ. аплоада (сидирования) этого торрента начисляется бонус: 0.001 Скачать торрент
Скачать торрент
О MediaGet
[ Размер 33.34 КБ / Просмотров 89 ]

Статус:
 
Приватный: Нет (DHT включён)
Размер: 13 ГБ (13 954 376 037 байт)
   
Аватара пользователя

Администратор
Администратор
 
Раздал: 2.33 ПБ
Скачал: 1.02 ПБ
Ратио: 2.281
Сообщения: 3723
Зарегистрирован: 07 май 2010, 17:29
Medals: 1
Лучший релиз за месяц (1)
  • Личное сообщение
  • ICQ

Вернуться в Зарубежные фильмы (Rip's)

Кто сейчас на конференции

Зарегистрированные пользователи: нет зарегистрированных пользователей

Ресурс не предоставляет электронные версии произведений, а занимается лишь коллекционированием и каталогизацией ссылок, присылаемых и публикуемых на форуме нашими читателями. Если вы являетесь правообладателем какого-либо представленного материала и не желаете чтобы ссылка на него находилась в нашем каталоге, свяжитесь с нами и мы незамедлительно удалим её. Файлы для обмена на трекере предоставлены пользователями сайта, и администрация не несёт ответственности за их содержание. Просьба не заливать файлы, защищенные авторскими правами, а также файлы нелегального содержания!
cron