Честь и ярость 2: Враждебный захват / Rage And Honor 2: Hostile Takeover (1993) DVDRip от Sem-te | P скачать торрент

Мировая классика кино, Rip, Рипы, Зарубежные фильмы

Модератор: Модераторы видео

  • Статистика раздачи
Размер: 1.46 ГБ   |  Зарегистрирован: 16 окт 2016, 19:59   |   .torrent скачан: 0 раз
Сидеров: 0  [ 0 байт/сек ]     Личеров: 0  [ 0 байт/сек ]  
Список файлов : Кто скачал : Раздают : Скачивают : Кто благодарил : История : Не раздающие : Запрашивали сидеров : Внешние трекеры 
  

Честь и ярость 2: Враждебный захват / Rage And Honor 2: Hostile Takeover (1993) DVDRip от Sem-te | P

Сообщение Фаромир брат » 16 окт 2016, 19:59

Страна: Индонезия, США
Жанр: боевик, триллер, драма, криминал
Год выпуска: 1993
Продолжительность: 01:37:37


Перевод: Профессиональный (многоголосый закадровый) Первый канал
Cубтитры: нет


Режиссер: Гай Норрис / Guy Norris


В ролях:, Ричард Нортон, Патрик Малдун, Франс Тамбуан, Рон Врикен, Алекс Тамундо, Джон Дж. Суси, Танака, Йени Фарида, Дэниэл Кобб, Дональд Пол Пемрик, Дон Бальфур, Грэхэм Стумпф, Гленн Руеланд, Джон П. Мелфи, Рон Нэйлор, Рони, Д.Е. Купер, Грег Райан, Джонни Кэйн


Описание: На этот раз наши герои оказываются втянуты в смертельную схватку в экзотическом и опасном мире. Престон занимается совершенствованием своего боевого мастерства в Джакарте. Тем временем, Крис отправляется в Индонезию в качестве агента ЦРУ, чтобы расследовать операцию по отмывке денег. Но встречавший ее связной убит и ей приходится устраиваться на работу в банк. Крис и Престон, каждый своим путем, оказываются вовлеченными в войну банд, борющихся за контроль над контрабандными операциями. При случайной встрече они и вида не подают, что знают друг друга. Постоянно оказываясь по разную сторону баррикад, сражаясь то с одними, то с другими громилами местной мафии, Крис и Престон срывают преступные планы и захватывают вертолет с алмазами.


Автор рипа: Sem-te

Релиз от:




Качество видео: DVDRip
Формат видео: AVI
Видео: 640x480 (1.33:1), 23.976 fps, XviD build 73 ~1942 kbps avg, 0.26 bit/pixel
Аудио: 48 kHz, AC3 Dolby Digital, 2/0 (L,R) ch, ~192 kbps
Размер: 1497.54 Mb (1/3 DVD-R)

За перевод с Первого канала спасибо Richard_norton, за оцефровку с VHS спасибо Sem-te, за синхронизацию перевода огромное благодарность Asianmaster.





General
Format : AVI
Format/Info : Audio Video Interleave
File size : 1.46 GiB
Duration : 1h 37mn
Overall bit rate : 2 144 Kbps
Writing application : VirtualDubMod 1.5.10.3 | http://www.virtualdub-fr.org || (build 2550/release)
Writing library : VirtualDubMod build 2550/release

Video
ID : 0
Format : MPEG-4 Visual
Format profile : Advanced [email protected]
Format settings, BVOP : 1
Format settings, QPel : No
Format settings, GMC : No warppoints
Format settings, Matrix : Custom
Codec ID : XVID
Codec ID/Hint : XviD
Duration : 1h 37mn
Bit rate : 1 943 Kbps
Width : 640 pixels
Height : 480 pixels
Display aspect ratio : 4:3
Frame rate : 23.976 fps
Color space : YUV
Chroma subsampling : 4:2:0
Bit depth : 8 bits
Scan type : Progressive
Compression mode : Lossy
Bits/(Pixel*Frame) : 0.264
Stream size : 1.33 GiB (91%)
Writing library : XviD 73

Audio
ID : 1
Format : AC-3
Format/Info : Audio Coding 3
Mode extension : CM (complete main)
Format settings, Endianness : Big
Codec ID : 2000
Duration : 1h 37mn
Bit rate mode : Constant
Bit rate : 192 Kbps
Channel(s) : 2 channels
Channel positions : Front: L R
Sampling rate : 48.0 KHz
Bit depth : 16 bits
Compression mode : Lossy
Stream size : 134 MiB (9%)
Alignment : Split accross interleaves
Interleave, duration : 42 ms (1.00 video frame)
Interleave, preload duration : 500 ms

   
Торрент: Зарегистрирован [16 окт 2016, 19:59] Скачать торрент
Скачать торрент
О MediaGet
[ Размер 15.42 КБ / Просмотров 51 ]

Статус:
 
Приватный: Нет (DHT включён)
Размер: 1.46 ГБ (1 570 271 232 байт)
   
Аватара пользователя

Сид-сен-сей
Сид-сен-сей
 
Раздал: 24.31 ТБ
Скачал: 1.72 ТБ
Ратио: 20.885
Сообщения: 7896
Фото: 125
Зарегистрирован: 26 ноя 2012, 17:20
Medals: 2
1000 раздач! (1) Меценат №2 (1)

  • Похожие торренты
    Ответы
    Просмотры
    Последнее сообщение

Вернуться в Зарубежные фильмы (Rip's)

Кто сейчас на конференции

Зарегистрированные пользователи: нет зарегистрированных пользователей

Ресурс не предоставляет электронные версии произведений, а занимается лишь коллекционированием и каталогизацией ссылок, присылаемых и публикуемых на форуме нашими читателями. Если вы являетесь правообладателем какого-либо представленного материала и не желаете чтобы ссылка на него находилась в нашем каталоге, свяжитесь с нами и мы незамедлительно удалим её. Файлы для обмена на трекере предоставлены пользователями сайта, и администрация не несёт ответственности за их содержание. Просьба не заливать файлы, защищенные авторскими правами, а также файлы нелегального содержания!
cron