Ниндзя из группы поддержки / Ninja Cheerleaders (2008) HDRip от Portablius | P2 скачать торрент

Мировая классика кино, Rip, Рипы, Зарубежные фильмы

Модератор: Модераторы видео

  • Статистика раздачи
Размер: 764.81 МБ   |  Зарегистрирован: 16 авг 2016, 23:16   |   .torrent скачан: 171 раз
Сидеров: 37  [ 0 байт/сек ]     Личеров: 44  [ 0 байт/сек ]  
Список файлов : Кто скачал : Раздают : Скачивают : Кто благодарил : История : Не раздающие : Запрашивали сидеров : Внешние трекеры 
  

Ниндзя из группы поддержки / Ninja Cheerleaders (2008) HDRip от Portablius | P2

Сообщение Фаромир брат » 16 авг 2016, 23:16

Название: Ниндзя из группы поддержки
Оригинальное название: Ninja Cheerleaders
Год выхода: 2008
Жанр: Комедия, боевик
Режиссер: Дэвид Прэсли
В ролях: Тришель Каннателла, Мейтленд МакКоннелл, Джордж Такей, Майкл Паре, Омар Дж. Дорси, Макс Перлих, Наташа Чанг, Ларри Поиндекстер, Ричард Давалос

О фильме: Эйприл, Кортни и Моника — три красивых, умных и крутых девчонки-первокурсницы. Они заканчивают свой первый семестр в захолустном муниципальном колледже Лос Ламас Малас. До полуночи они должны успешно сдать экзамены, чтобы их приняли в Ivy League Университет, а также танцевать в группе поддержки на важной игре и спасти своего Сенсея, похищенного бандитами — все для того, чтобы они могли принять участие в общегородском турнире по раздеванию с надеждой выиграть денежный приз колледжа. Все это время им приходится убегать от пронырливых копов, держать своих родителей на расстоянии, иметь дело с тренером-извращенцем, добиться своей цели, улыбаясь, разговаривая или дерясь с множеством странных персонажей…



Страна: США
Студия: Hi-Fidelity Films, Mercurybar Productions, NCS Productions
Продолжительность: 01:21:36
Перевод: Профессиональный, двухголосый (НТВ+)
Субтитры: Нет

Семпл

Файл
Кодек: XviD
Качество: HDRip
Видео: 656x368 (1.78:1), 23.976 fps, XviD build 73 ~1172 kbps avg, 0.20 bit/pixel
Звук: 48 kHz, MPEG Layer 3, 2 ch, ~128.00 kbps avg

Общее
Полное имя : Ninja.Cheerleaders.2008.HDRip.ot.Portablius.avi
Формат : AVI
Формат/Информация : Audio Video Interleave
Размер файла : 765 Мбайт
Продолжительность : 1 ч. 21 м.
Общий поток : 1310 Кбит/сек
Программа кодирования : VirtualDubMod 1.5.10.3 | http://www.virtualdub-fr.org || (build 2550/release)
Библиотека кодирования : VirtualDubMod build 2550/release

Видео
Идентификатор : 0
Формат : MPEG-4 Visual
Профиль формата : Advanced [email protected]
Параметр BVOP формата : 1
Параметр QPel формата : Нет
Параметр GMC формата : Без точки перехода
Параметр матрицы формата : Выборочная
Идентификатор кодека : XVID
Идентификатор кодека/Подсказка : XviD
Продолжительность : 1 ч. 21 м.
Битрейт : 1173 Кбит/сек
Ширина : 656 пикселей
Высота : 368 пикселей
Соотношение сторон : 16:9
Частота кадров : 23,976 (23976/1000) кадра/сек
Цветовое пространство : YUV
Субдискретизация насыщенности : 4:2:0
Битовая глубина : 8 бит
Тип развёртки : Прогрессивная
Метод сжатия : С потерями
Бит/(Пиксели*Кадры) : 0.203
Размер потока : 685 Мбайт (90%)
Библиотека кодирования : XviD 73

Аудио
Идентификатор : 1
Формат : MPEG Audio
Версия формата : Version 1
Профиль формата : Layer 3
Идентификатор кодека : 55
Идентификатор кодека/Подсказка : MP3
Продолжительность : 1 ч. 21 м.
Вид битрейта : Постоянный
Битрейт : 128 Кбит/сек
Каналы : 2 канала
Частота : 48,0 КГц
Метод сжатия : С потерями
Размер потока : 74,7 Мбайт (10%)
Выравнивание : Соединение по промежуткам
Продолжительность промежутка : 42 мс. (1,00 видеокадр)
Время предзагрузки промежутка : 504 мс.
Библиотека кодирования : LAME3.99r
Настройки программы : -m s -V 4 -q 2 -lowpass 17 -b 128


   
Торрент: Зарегистрирован [16 авг 2016, 23:16] Скачать торрент
Скачать торрент
О MediaGet
[ Размер 15.59 КБ / Просмотров 92 ]

Статус:
 
Приватный: Нет (DHT включён)
Размер: 764.81 МБ (801 957 888 байт)
   
Аватара пользователя

Сид-сен-сей
Сид-сен-сей
 
Раздал: 24.31 ТБ
Скачал: 1.72 ТБ
Ратио: 20.885
Сообщения: 7896
Фото: 125
Зарегистрирован: 26 ноя 2012, 17:20
Medals: 2
1000 раздач! (1) Меценат №2 (1)

Вернуться в Зарубежные фильмы (Rip's)

Кто сейчас на конференции

Зарегистрированные пользователи: нет зарегистрированных пользователей

Ресурс не предоставляет электронные версии произведений, а занимается лишь коллекционированием и каталогизацией ссылок, присылаемых и публикуемых на форуме нашими читателями. Если вы являетесь правообладателем какого-либо представленного материала и не желаете чтобы ссылка на него находилась в нашем каталоге, свяжитесь с нами и мы незамедлительно удалим её. Файлы для обмена на трекере предоставлены пользователями сайта, и администрация не несёт ответственности за их содержание. Просьба не заливать файлы, защищенные авторскими правами, а также файлы нелегального содержания!
cron