Портниха / The Dressmaker (Джослин Мурхаус / Jocelyn Moorhouse) [2015, Австралия, драма, HDRip] DVO (den904 & DeadSno) скачать торрент

Мировая классика кино, Rip, Рипы, Зарубежные фильмы

Модератор: Модераторы видео

  • Статистика раздачи
Размер: 1.45 ГБ   |  Зарегистрирован: 09 апр 2016, 04:24   |   .torrent скачан: 4 раз
Сидеров: 0  [ 0 байт/сек ]     Личеров: 0  [ 0 байт/сек ]  
Список файлов : Кто скачал : Раздают : Скачивают : Кто благодарил : История : Не раздающие : Запрашивали сидеров : Внешние трекеры 
  

Портниха / The Dressmaker (Джослин Мурхаус / Jocelyn Moorhouse) [2015, Австралия, драма, HDRip] DVO (den904 & DeadSno)

Сообщение Админ » 09 апр 2016, 04:24

Портниха / The Dressmaker

Страна: Австралия
Жанр: драма
Год выпуска: 2015
Продолжительность: 01:58:52

Перевод: Любительский (двухголосый закадровый) den904 & DeadSno
Cубтитры: нет
Режиссер: Джослин Мурхаус / Jocelyn Moorhouse

В ролях: Кейт Уинслет, Лиам Хемсворт, Сара Снук, Хьюго Уивинг, Кэролайн Гудолл, Джуди Дэвис, Керри Фокс, Ребекка Гибни, Шэйн Джейкобсон, Хейли Магнус

Описание: Гламурная женщина возвращается в родной город, откуда уехала еще ребенком после обвинения в убийстве. Жители городка сначала не принимают ее, но постепенно она завоевывает расположение местных дам благодаря остроумию и умению кроить безупречные наряды...

Сэмпл: http://multi-up.com/1093504

Качество видео: HDRip
Формат видео: AVI

Видео: 720x304 (2.37:1), 23.976 fps, XviD build 73 ~1550 kbps avg, 0.29 bit/pixel
Аудио: 48 kHz, AC3 Dolby Digital, 2/0 (L,R) ch, ~192 kbps
Общее
Полное имя : D:\The.Dressmaker_2015.HDRip.avi
Формат : AVI
Формат/Информация : Audio Video Interleave
Размер файла : 1,45 Гбайт
Продолжительность : 1 ч. 58 м.
Общий поток : 1752 Кбит/сек
Программа кодирования : VirtualDubMod 1.5.10.3 | http://www.virtualdub-fr.org || (build 2550/release)
Библиотека кодирования : VirtualDubMod build 2550/release

Видео
Идентификатор : 0
Формат : MPEG-4 Visual
Профиль формата : Advanced [email protected]
Параметр BVOP формата : 1
Параметр QPel формата : Нет
Параметр GMC формата : Без точки перехода
Параметр матрицы формата : Выборочная
Идентификатор кодека : XVID
Идентификатор кодека/Подсказка : XviD
Продолжительность : 1 ч. 58 м.
Битрейт : 1551 Кбит/сек
Ширина : 720 пикселей
Высота : 304 пикселя
Соотношение сторон : 2,35:1
Частота кадров : 23,976 (23976/1000) кадра/сек
Цветовое пространство : YUV
Субдискретизация насыщенности : 4:2:0
Битовая глубина : 8 бит
Тип развёртки : Прогрессивная
Метод сжатия : С потерями
Бит/(Пиксели*Кадры) : 0.295
Размер потока : 1,29 Гбайт (88%)
Библиотека кодирования : XviD 73

Аудио
Идентификатор : 1
Формат : AC-3
Формат/Информация : Audio Coding 3
Расширение режима : CM (complete main)
Параметр Endianness формата : Big
Идентификатор кодека : 2000
Продолжительность : 1 ч. 58 м.
Вид битрейта : Постоянный
Битрейт : 192 Кбит/сек
Каналы : 2 канала
Расположение каналов : Front: L R
Частота : 48,0 КГц
Частота кадров : 31,250 кадров/сек (1536 spf)
Метод сжатия : С потерями
Размер потока : 163 Мбайт (11%)
Выравнивание : Разделение по промежуткам
Продолжительность промежутка : 42 мс. (1,00 видеокадр)
Время предзагрузки промежутка : 500 мс.
   
Торрент: Зарегистрирован [09 апр 2016, 04:24] Скачать торрент
Скачать торрент
О MediaGet
[ Размер 15.1 КБ / Просмотров 124 ]

Статус:
 
Приватный: Нет (DHT включён)
Размер: 1.45 ГБ (1 562 132 480 байт)
   
Аватара пользователя

Администратор
Администратор
 
Раздал: 2.33 ПБ
Скачал: 1.02 ПБ
Ратио: 2.281
Сообщения: 3702
Зарегистрирован: 07 май 2010, 17:29
Medals: 1
Лучший релиз за месяц (1)
  • Личное сообщение
  • ICQ

  • Похожие торренты
    Ответы
    Просмотры
    Последнее сообщение

Вернуться в Зарубежные фильмы (Rip's)

Кто сейчас на конференции

Зарегистрированные пользователи: нет зарегистрированных пользователей

Ресурс не предоставляет электронные версии произведений, а занимается лишь коллекционированием и каталогизацией ссылок, присылаемых и публикуемых на форуме нашими читателями. Если вы являетесь правообладателем какого-либо представленного материала и не желаете чтобы ссылка на него находилась в нашем каталоге, свяжитесь с нами и мы незамедлительно удалим её. Файлы для обмена на трекере предоставлены пользователями сайта, и администрация не несёт ответственности за их содержание. Просьба не заливать файлы, защищенные авторскими правами, а также файлы нелегального содержания!
cron