Обитель проклятых / Eliza Graves / Stonehearst Asylum (Брэд Андерсон / Brad Anderson) [2014, США, триллер, BDRip] [US] Dub BD скачать торрент

Мировая классика кино, Rip, Рипы, Зарубежные фильмы

Модератор: Модераторы видео

  • Статистика раздачи
Размер: 1.46 ГБ   |  Зарегистрирован: 09 апр 2016, 04:23   |   .torrent скачан: 6 раз
Сидеров: 147  [ 0 байт/сек ]     Личеров: 1  [ 0 байт/сек ]  
Список файлов : Кто скачал : Раздают : Скачивают : Кто благодарил : История : Не раздающие : Запрашивали сидеров : Внешние трекеры 
  

Обитель проклятых / Eliza Graves / Stonehearst Asylum (Брэд Андерсон / Brad Anderson) [2014, США, триллер, BDRip] [US] Dub BD

Сообщение Админ » 09 апр 2016, 04:23

Обитель проклятых / Eliza Graves / Stonehearst Asylum
«No one is what they seem»

Страна: США / Icon Productions, Sobini Films
Жанр: триллер
Год выпуска: 2014
Продолжительность: 01:52:40

Перевод: Профессиональный (дублированный) лицензия BD
Cубтитры: нет
Режиссёр: Брэд Андерсон / Brad Anderson

В ролях: Кейт Бекинсейл, Джим Стёрджесс, Бен Кингсли, Дэвид Тьюлис, Майкл Кейн, Брендан Глисон, Джейсон Флеминг, Софи Кеннеди Кларк, Шинед Кьюсак, Эдмунд Кингсли, Роберт Хэндс, Сиара Флинн, Кристофер Фулфорд, Эндрю Доллмейер, Гийом Делони.

Описание: Молодой медицинский работник Эдвард устраивается работать в психиатрическую лечебницу. Вскоре становится известно об исчезновении одного из лечащих врачей психушки. Эдвард обнаруживает, что его похитили пациенты больницы, а вскоре и вся психушка оказывается захвачена ими…
Рейтинг
imdb.com: 6.90 (12 924)
kinopoisk.ru: 7.217 (25 349)
MPAA: - детям до 13 лет просмотр не желателен
Сэмпл: http://multi-up.com/1024631
Качество видео: BDRip []
Формат видео: AVI

Видео: XviD build 65, 720x304 (2.37:1), 23.976 fps, ~1466 kbps avg, 0.279 bit/pixel
Аудио: 48 kHz, AC3 Dolby Digital, 3/2 (L,C,R,l,r) + LFE ch, ~384 kbps avg (Dub)

Общее
Полное имя : D:\Eliza.Graves.2014.US-Transfer.Dub.BDRip.1,46Gb.XviD.AC3.avi
Формат : AVI
Формат/Информация : Audio Video Interleave
Размер файла : 1,46 Гбайт
Продолжительность : 1 ч. 52 м.
Общий поток : 1859 Кбит/сек
Название фильма : Eliza Graves / Stonehearst Asylum 2014. [US-Transfer]
Режиссёр : Brad Anderson
Дата записи : 05.01.2015
Программа кодирования : VirtualDubModRus 1.5.10.2 (build 2542/release)
Библиотека кодирования : VirtualDubMod build 2542/release
Правообладатель : Rutracker.org
Примечание : BDRip by MooN_WalkeR

Видео
Идентификатор : 0
Формат : MPEG-4 Visual
Профиль формата : Advanced [email protected]
Параметр BVOP формата : 1
Параметр QPel формата : Нет
Параметр GMC формата : Без точки перехода
Параметр матрицы формата : Выборочная
Идентификатор кодека : XVID
Идентификатор кодека/Подсказка : XviD
Продолжительность : 1 ч. 52 м.
Битрейт : 1466 Кбит/сек
Ширина : 720 пикселей
Высота : 304 пикселя
Соотношение сторон : 2,35:1
Частота кадров : 23,976 кадра/сек
Цветовое пространство : YUV
Субдискретизация насыщенности : 4:2:0
Битовая глубина : 8 бит
Тип развёртки : Прогрессивная
Метод сжатия : С потерями
Бит/(Пиксели*Кадры) : 0.279
Размер потока : 1,15 Гбайт (79%)
Библиотека кодирования : XviD 65

Аудио
Идентификатор : 1
Формат : AC-3
Формат/Информация : Audio Coding 3
Расширение режима : CM (complete main)
Параметр Endianness формата : Big
Идентификатор кодека : 2000
Продолжительность : 1 ч. 52 м.
Вид битрейта : Постоянный
Битрейт : 384 Кбит/сек
Каналы : 6 каналов
Расположение каналов : Front: L C R, Side: L R, LFE
Частота : 48,0 КГц
Битовая глубина : 16 бит
Метод сжатия : С потерями
Размер потока : 309 Мбайт (21%)
Выравнивание : Разделение по промежуткам
Продолжительность промежутка : 42 мс. (1,00 видеокадр)
Время предзагрузки промежутка : 500 мс.
Заголовок : Dub

   
Торрент: Зарегистрирован [09 апр 2016, 04:23] Скачать торрент
Скачать торрент
О MediaGet
[ Размер 15.12 КБ / Просмотров 146 ]

Статус:
 
Приватный: Нет (DHT включён)
Размер: 1.46 ГБ (1 570 975 744 байт)
   
Аватара пользователя

Администратор
Администратор
 
Раздал: 2.33 ПБ
Скачал: 1.02 ПБ
Ратио: 2.281
Сообщения: 3702
Зарегистрирован: 07 май 2010, 17:29
Medals: 1
Лучший релиз за месяц (1)
  • Личное сообщение
  • ICQ

Вернуться в Зарубежные фильмы (Rip's)

Кто сейчас на конференции

Зарегистрированные пользователи: Spivak

Ресурс не предоставляет электронные версии произведений, а занимается лишь коллекционированием и каталогизацией ссылок, присылаемых и публикуемых на форуме нашими читателями. Если вы являетесь правообладателем какого-либо представленного материала и не желаете чтобы ссылка на него находилась в нашем каталоге, свяжитесь с нами и мы незамедлительно удалим её. Файлы для обмена на трекере предоставлены пользователями сайта, и администрация не несёт ответственности за их содержание. Просьба не заливать файлы, защищенные авторскими правами, а также файлы нелегального содержания!
cron