Звёздные войны: Пробуждение силы / Star Wars: Episode VII - The Force Awakens (Джей Джей Абрамс / J.J. Abrams) [2015, США, фантастика, приключения, боевик, BDRip-AVC] Dub + Original + Sub (rus, eng) скачать торрент

Мировая классика кино, Rip, Рипы, Зарубежные фильмы

Модератор: Модераторы видео

  • Статистика раздачи
Размер: 2.91 ГБ   |  Зарегистрирован: 09 апр 2016, 04:22   |   .torrent скачан: 15 раз
Сидеров: 0  [ 0 байт/сек ]     Личеров: 0  [ 0 байт/сек ]  
Список файлов : Кто скачал : Раздают : Скачивают : Кто благодарил : История : Не раздающие : Запрашивали сидеров : Внешние трекеры 
  

Звёздные войны: Пробуждение силы / Star Wars: Episode VII - The Force Awakens (Джей Джей Абрамс / J.J. Abrams) [2015, США, фантастика, приключения, боевик, BDRip-AVC] Dub + Original + Sub (rus, eng)

Сообщение Админ » 09 апр 2016, 04:22

Звёздные войны: Пробуждение силы / Star Wars: Episode VII - The Force Awakens
«Every generation has a story»

Страна: США
Жанр: фантастика, приключения, боевик
Год выпуска: 2015
Продолжительность: 02:18:07

Перевод: Профессиональный (полное дублирование) (iTunes)
Оригинальная аудиодорожка: английский
Cубтитры: русские (форс., полные), английские (полные, SDH)
Навигация по главам: есть

Режиссёр: Джей Джей Абрамс / J.J. Abrams

В ролях: Джон Бойега, Дэйзи Ридли, Оскар Айзек, Адам Драйвер, Донал Глисон, Харрисон Форд, Марк Хэмилл, Кэрри Фишер, Макс фон Сюдов, Энди Серкис

Описание: Через тридцать лет после гибели Дарта Вейдера и Императора галактика по-прежнему в опасности. Государственное образование Первый Орден во главе с их таинственным верховным лидером Сноуком и его правой рукой Кайло Реном идёт по стопам Империи, пытаясь захватить всю власть. В это нелёгкое время судьба сводит юную девушку Рей и бывшего штурмовика Первого Ордена Финна с героями времён войны с Империей — Ханом Соло, Чубаккой и генералом Леей. Вместе они должны дать бой Первому Ордену, однако настаёт тот момент, когда становится очевидно, что лишь джедаи могут остановить Сноука и Кайло Рена. И в галактике в живых остаётся только один…

[bad=/static.t-ru.org/smiles/icon_arrow.gif[/imgg]

Качество видео: BDRip-AVC (исходник - BDRemux|Star.Wars.Episode.VII.The.Force.Awakens.2015.REMUX.1080p.BluRay.AVC.DTS-HD.MA7.1-iFT)
Формат видео: MKV

Видео: x264, 1008x420 (2.40:1), 23,976 fps, ~2133 kbps, 0.210 bit/pixel
Аудио 1: 48 kHz, AC3 Dolby Digital, 3/2 (L,C,R,l,r) + LFE ch, ~384 kbps [русский]
Аудио 2: 48 kHz, AC3 Dolby Digital, 3/2 (L,C,R,l,r) + LFE ch, ~448 kbps [английский]
Формат субтитров: softsub (SRT)
Format : Matroska
Format version : Version 4 / Version 2
File size : 2.91 GiB
Duration : 2h 18mn
Overall bit rate : 3 021 Kbps
Movie name : Star Wars: Episode VII - The Force Awakens (2015) :: AFM ::
Encoded date : UTC 2016-03-31 21:36:13
Writing application : mkvmerge v8.3.0 ('Over the Horizon') 32bit
Writing library : libebml v1.3.1 + libmatroska v1.4.2

Video
ID : 1
Format : AVC
Format/Info : Advanced Video Codec
Format profile : [email protected]
Format settings, CABAC : Yes
Format settings, ReFrames : 11 frames
Codec ID : V_MPEG4/ISO/AVC
Duration : 2h 18mn
Bit rate : 2 129 Kbps
Width : 1 008 pixels
Height : 420 pixels
Display aspect ratio : 2.40:1
Frame rate mode : Constant
Frame rate : 23.976 fps
Color space : YUV
Chroma subsampling : 4:2:0
Bit depth : 8 bits
Scan type : Progressive
Bits/(Pixel*Frame) : 0.210
Stream size : 2.05 GiB (70%)
Title : BDRip by AFM [RuTracker.org]
Writing library : x264 core 148 r2665+53 6629127 t_mod_Custom [[email protected] X86_64]
Encoding settings : cabac=1 / ref=11 / deblock=1:-1:-1 / analyse=0x3:0x113 / me=umh / subme=11 / psy=1 / fade_compensate=0.00 / psy_rd=1.00:0.00 / mixed_ref=1 / me_range=32 / chroma_me=1 / trellis=2 / 8x8dct=1 / cqm=0 / deadzone=21,11 / fast_pskip=0 / chroma_qp_offset=-2 / threads=6 / lookahead_threads=1 / sliced_threads=0 / nr=0 / decimate=1 / interlaced=0 / bluray_compat=0 / constrained_intra=0 / fgo=0 / bframes=13 / b_pyramid=2 / b_adapt=2 / b_bias=0 / direct=1 / weightb=1 / open_gop=0 / weightp=2 / keyint=250 / keyint_min=23 / scenecut=40 / intra_refresh=0 / rc_lookahead=90 / rc=crf / mbtree=1 / crf=18.1000 / qcomp=0.65 / qpmin=0:0:0 / qpmax=69:69:69 / qpstep=4 / vbv_maxrate=50000 / vbv_bufsize=62500 / crf_max=0.0 / nal_hrd=none / filler=0 / ip_ratio=1.33 / aq=3:1.00 / aq-sensitivity=10.00 / aq-factor=1.00:1.00:1.00 / aq2=0 / aq3=0
Language : English
Default : Yes
Forced : No

Audio #1
ID : 2
Format : AC-3
Format/Info : Audio Coding 3
Mode extension : CM (complete main)
Format settings, Endianness : Big
Codec ID : A_AC3
Duration : 2h 18mn
Bit rate mode : Constant
Bit rate : 384 Kbps
Channel(s) : 6 channels
Channel positions : Front: L C R, Side: L R, LFE
Sampling rate : 48.0 KHz
Compression mode : Lossy
Stream size : 379 MiB (13%)
Title : Dub, AC3 5.1 ~384 kbps
Language : Russian
Default : Yes
Forced : No

Audio #2
ID : 3
Format : AC-3
Format/Info : Audio Coding 3
Mode extension : CM (complete main)
Format settings, Endianness : Big
Codec ID : A_AC3
Duration : 2h 18mn
Bit rate mode : Constant
Bit rate : 448 Kbps
Channel(s) : 6 channels
Channel positions : Front: L C R, Side: L R, LFE
Sampling rate : 48.0 KHz
Compression mode : Lossy
Stream size : 443 MiB (15%)
Title : Original, AC3 5.1 ~448 kbps
Language : English
Default : No
Forced : No

Text #1
ID : 4
Format : UTF-8
Codec ID : S_TEXT/UTF8
Codec ID/Info : UTF-8 Plain Text
Title : forced
Language : Russian
Default : Yes
Forced : No

Text #2
ID : 5
Format : UTF-8
Codec ID : S_TEXT/UTF8
Codec ID/Info : UTF-8 Plain Text
Language : Russian
Default : No
Forced : No

Text #3
ID : 6
Format : UTF-8
Codec ID : S_TEXT/UTF8
Codec ID/Info : UTF-8 Plain Text
Language : English
Default : No
Forced : No

Text #4
ID : 7
Format : UTF-8
Codec ID : S_TEXT/UTF8
Codec ID/Info : UTF-8 Plain Text
Title : SDH
Language : English
Default : No
Forced : No

Menu
00:00:00.000 : en:Opening Logo
00:00:09.259 : en:The Force Awakens
00:01:43.061 : en:The First Order Approaches
00:03:51.857 : en:Village Raid
00:06:12.289 : en:Kylo Ren
00:09:33.948 : en:FN-2187
00:10:43.560 : en:Rey
00:12:35.713 : en:Niima Outpost
00:13:39.694 : en:Rey at Home
00:14:48.221 : en:Saving BB-8
00:16:45.922 : en:Interrogation
00:18:04.583 : en:Unkar's Offer
00:19:21.535 : en:Jailbreak
00:21:26.619 : en:TIE Gighter Escape
00:24:03.651 : en:Marooned on Jakku
00:26:47.022 : en:Crossing Paths
00:29:54.668 : en:Marketplace Chase
00:31:49.324 : en:The Falcon Flies Again
00:35:51.775 : en:Introductions
00:36:40.615 : en:Kylo Is Updated
00:37:45.513 : en:Fixing the Falcon
00:40:19.250 : en:Chewie, We're Home
00:43:39.200 : en:Corellion Stand
00:45:29.560 : en:Rathtar Mayhem
00:49:22.918 : en:Supreme Leader
00:51:19.952 : en:It's All True
00:54:13.750 : en:Meeting Maz
00:59:48.794 : en:Discussions of Destinies
01:04:16.061 : en:Visions in the Force
01:08:37.238 : en:Starkiller
01:11:07.221 : en:First Order Invasion
01:15:16.387 : en:Resistance to the Rescue
01:16:49.897 : en:Kylo Finds Rey
01:19:37.523 : en:Reunion
01:20:56.894 : en:Resistance Base
01:25:36.173 : en:Rey Imprisoned
01:32:12.569 : en:Resistance Briefing
01:35:29.015 : en:Starkiller Landing
01:36:34.956 : en:Base Infiltration
01:39:28.629 : en:X-Wing Attack
01:41:29.959 : en:Rejoining Rey
01:42:57.505 : en:Into The Oscillator
01:45:00.002 : en:Father and Son
01:50:33.710 : en:Dark Forest
01:53:39.771 : en:Oscillator Breached
01:55:22.165 : en:Forest Duel
01:58:05.453 : en:Cataclysm
02:01:05.592 : en:Made Whole
02:02:32.679 : en:Finding the Master
02:07:07.578 : en:End Credits
x264 [info]: frame I:1564 Avg QP:14.46 size: 74345
x264 [info]: frame P:44564 Avg QP:18.08 size: 22718
x264 [info]: frame B:152553 Avg QP:20.69 size: 7453
x264 [info]: consecutive B-frames: 2.8% 2.9% 8.3% 21.0% 19.0% 33.6% 6.5% 2.0% 1.4% 0.7% 0.6% 0.2% 0.7% 0.4%
x264 [info]: mb I I16..4: 5.1% 68.8% 26.1%
x264 [info]: mb P I16..4: 1.2% 11.2% 2.7% P16..4: 31.5% 37.0% 11.8% 0.0% 0.0% skip: 4.6%
x264 [info]: mb B I16..4: 0.1% 1.6% 0.4% B16..8: 36.9% 20.7% 3.3% direct: 5.1% skip:31.9% L0:43.3% L1:45.6% BI:11.1%
x264 [info]: 8x8 transform intra:73.5% inter:61.6%
x264 [info]: coded y,uvDC,uvAC intra: 84.1% 86.5% 63.4% inter: 24.9% 21.3% 6.1%
x264 [info]: i16 v,h,dc,p: 23% 14% 5% 58%
x264 [info]: i8 v,h,dc,ddl,ddr,vr,hd,vl,hu: 11% 7% 5% 10% 14% 14% 14% 12% 13%
x264 [info]: i4 v,h,dc,ddl,ddr,vr,hd,vl,hu: 26% 6% 5% 8% 12% 11% 12% 9% 11%
x264 [info]: i8c dc,h,v,p: 36% 24% 19% 21%
x264 [info]: Weighted P-Frames: Y:97.7% UV:6.0%
x264 [info]: ref P L0: 45.9% 9.9% 17.3% 6.8% 5.4% 3.9% 3.4% 1.9% 1.8% 1.6% 1.7% 0.4% 0.0%
x264 [info]: ref B L0: 74.9% 11.2% 5.3% 2.6% 1.9% 1.5% 1.2% 0.7% 0.4% 0.2%
x264 [info]: ref B L1: 92.9% 7.1%
x264 [info]: kb/s:2187.20
01.04.2016 торрент перезалит - замена русской дорожки на iTunes.
   
Торрент: Зарегистрирован [09 апр 2016, 04:22] Скачать торрент
Скачать торрент
О MediaGet
[ Размер 15.06 КБ / Просмотров 275 ]

Статус:
 
Приватный: Нет (DHT включён)
Размер: 2.91 ГБ (3 129 768 987 байт)
   
Аватара пользователя

Администратор
Администратор
 
Раздал: 2.33 ПБ
Скачал: 1.02 ПБ
Ратио: 2.281
Сообщения: 3719
Зарегистрирован: 07 май 2010, 17:29
Medals: 1
Лучший релиз за месяц (1)
  • Личное сообщение
  • ICQ

Вернуться в Зарубежные фильмы (Rip's)

Кто сейчас на конференции

Зарегистрированные пользователи: нет зарегистрированных пользователей

Ресурс не предоставляет электронные версии произведений, а занимается лишь коллекционированием и каталогизацией ссылок, присылаемых и публикуемых на форуме нашими читателями. Если вы являетесь правообладателем какого-либо представленного материала и не желаете чтобы ссылка на него находилась в нашем каталоге, свяжитесь с нами и мы незамедлительно удалим её. Файлы для обмена на трекере предоставлены пользователями сайта, и администрация не несёт ответственности за их содержание. Просьба не заливать файлы, защищенные авторскими правами, а также файлы нелегального содержания!
cron