Салон магии / Высшая магия / Voyance et manigance (Эрик Форньолс / Eric Fourniols) [2001, Франция, комедия, TVRip] MVO скачать торрент

Мировая классика кино, Rip, Рипы, Зарубежные фильмы

Модератор: Модераторы видео

  • Статистика раздачи
Размер: 753.04 МБ   |  Зарегистрирован: 05 апр 2016, 19:29   |   .torrent скачан: 1 раз
Сидеров: 0  [ 0 байт/сек ]     Личеров: 0  [ 0 байт/сек ]  
Список файлов : Кто скачал : Раздают : Скачивают : Кто благодарил : История : Не раздающие : Запрашивали сидеров : Внешние трекеры 
  

Салон магии / Высшая магия / Voyance et manigance (Эрик Форньолс / Eric Fourniols) [2001, Франция, комедия, TVRip] MVO

Сообщение Фаромир брат » 05 апр 2016, 19:29

Салон магии / Высшая магия / Voyance et manigance

Страна: Франция
Жанр: Комедия
Год выпуска: 2001
Продолжительность: 01:24:52

Перевод: Профессиональный (многоголосый закадровый)
Cубтитры: нет
Режиссер: Эрик Форньолс / Eric Fourniols

В ролях: Эмманюэль Беар, Дьедонне, Анемон, Серж Хазанавициус, Зинедин Суалем, Валери Боннетон, Оливье Клавери, Борис Дюпоншель, Венсан Москато

Описание: 1. Шанталь (Эмманюэль Беар - "8 женщин") счастлива. С мужем у нее все прекрасно, сын - будущая звезда футбола, и на службе все хорошо. Но когда муж теряет работу и впадает в депрессию, Шанталь по рекомендации подруги решает посетить дипломированного астролога (и по совместительству азартного игрока) Альбана, лауреата премий "Платиновая каббалистика" и "Золотое зрение". Ведь с ясновидящими и предсказателями советовались даже такие великие люди, как Цезарь, Наполеон и Шарль Де Голль. Так что Альбану ничего не стоит убедить свою доверчивую клиентку в том, что над ее семьей нависло страшное проклятие. И снять его может только такой непревзойденный специалист, как сам Альбан. Причем за очень скромное вознаграждение. Если же не поможет и это, можно будет провести чуть более дорогостоящий сеанс экзорсизма...

2. В наше время многие готовы раскошелиться, чтобы услышать благоприятный астрологический прогноз или снять "порчу", ведь покой близких не имеет цены! Ловкость рук, дар убеждения и немного обаяния - вот все, что нужно современному "адепту высшей магии", чтобы вытягивать денежки из доверчивых клиентов. Таков и практикующий астролог Альбан. Ему ничего не стоит убедить доверчивую Шанталь Барде в том, что над ней и ее семьей тяготеет проклятие, и единственный, кто может ей помочь (разумеется, за скромное вознаграждение в 12 тысяч франков) - это он, мэтр Альбан, обладатель "диплома посвященного в эзотерическое искусство гадания"

Качество видео: TVRip
Формат видео: AVI

Видео: 512x384 (1.33:1), 25 fps, XviD build 73 ~1038 kbps avg, 0.21 bit/pixel
Аудио: 48 kHz, AC3 Dolby Digital, 2/0 (L,R) ch, ~192 kbps
Салон магии - Voyance et manigance [by Edich2].avi
Format : AVI
Format/Info : Audio Video Interleave
File size : 753 MiB
Duration : 1h 24mn
Overall bit rate : 1 241 Kbps
Movie name : Салон магии - Voyance et manigance [by Edich2]
Director : by SUPERDVD01
Writing application : VirtualDubMod 1.5.10.2 (build 2540/release)
Copyright : Edich2
Comment : RuTracker.org

Video
ID : 0
Format : MPEG-4 Visual
Format profile : Advanced [email protected]
Format settings, BVOP : 2
Format settings, QPel : No
Format settings, GMC : No warppoints
Format settings, Matrix : Custom
Codec ID : XVID
Codec ID/Hint : XviD
Duration : 1h 24mn
Bit rate : 1 039 Kbps
Width : 512 pixels
Height : 384 pixels
Display aspect ratio : 4:3
Frame rate : 25.000 fps
Color space : YUV
Chroma subsampling : 4:2:0
Bit depth : 8 bits
Scan type : Progressive
Compression mode : Lossy
Bits/(Pixel*Frame) : 0.211
Stream size : 631 MiB (84%)
Writing library : XviD 73

Audio
ID : 1
Format : AC-3
Format/Info : Audio Coding 3
Mode extension : CM (complete main)
Format settings, Endianness : Big
Codec ID : 2000
Duration : 1h 24mn
Bit rate mode : Constant
Bit rate : 192 Kbps
Channel(s) : 2 channels
Channel positions : Front: L R
Sampling rate : 48.0 KHz
Frame rate : 31.250 fps (1536 spf)
Compression mode : Lossy
Stream size : 117 MiB (15%)
Alignment : Split accross interleaves
Interleave, duration : 40 ms (1.00 video frame)
Interleave, preload duratio : 500 ms


   
Торрент: Зарегистрирован [05 апр 2016, 19:29] Скачать торрент
Скачать торрент
О MediaGet
[ Размер 15.2 КБ / Просмотров 94 ]

Статус:
 
Приватный: Нет (DHT включён)
Размер: 753.04 МБ (789 616 640 байт)
   
Аватара пользователя

Сид-сен-сей
Сид-сен-сей
 
Раздал: 24.31 ТБ
Скачал: 1.72 ТБ
Ратио: 20.885
Сообщения: 7897
Фото: 125
Зарегистрирован: 26 ноя 2012, 17:20
Medals: 2
1000 раздач! (1) Меценат №2 (1)

  • Похожие торренты
    Ответы
    Просмотры
    Последнее сообщение

Вернуться в Зарубежные фильмы (Rip's)

Кто сейчас на конференции

Зарегистрированные пользователи: нет зарегистрированных пользователей

Ресурс не предоставляет электронные версии произведений, а занимается лишь коллекционированием и каталогизацией ссылок, присылаемых и публикуемых на форуме нашими читателями. Если вы являетесь правообладателем какого-либо представленного материала и не желаете чтобы ссылка на него находилась в нашем каталоге, свяжитесь с нами и мы незамедлительно удалим её. Файлы для обмена на трекере предоставлены пользователями сайта, и администрация не несёт ответственности за их содержание. Просьба не заливать файлы, защищенные авторскими правами, а также файлы нелегального содержания!
cron