Страна мустангов / Mustang Country (Джон С. Чемпион / John C. Champion) [1976, США, Вестерн, приключения, семейный, DVDRip] sub ENG, RUS (adamovna) скачать торрент

Мировая классика кино, Rip, Рипы, Зарубежные фильмы

Модератор: Модераторы видео

  • Статистика раздачи
Размер: 1.18 ГБ   |  Зарегистрирован: 05 апр 2016, 13:48   |   .torrent скачан: 0 раз
Сидеров: 0  [ 0 байт/сек ]     Личеров: 0  [ 0 байт/сек ]  
Список файлов : Кто скачал : Раздают : Скачивают : Кто благодарил : История : Не раздающие : Запрашивали сидеров : Внешние трекеры 
  

Страна мустангов / Mustang Country (Джон С. Чемпион / John C. Champion) [1976, США, Вестерн, приключения, семейный, DVDRip] sub ENG, RUS (adamovna)

Сообщение Фаромир брат » 05 апр 2016, 13:48

~ Страна мустангов /
Mustang Country ~

Страна:США
Жанр: Вестерн, приключения, семейный
Продолжительность: 01:20:00
Год выпуска: 1976
Перевод: : субтитры
Оригинальная аудиодорожка: английский
Субтитры:
английские ([email protected]), русские (adamovna)
Режиссёр: Джон С. Чемпион / John C. Champion

В ролях: Джоэл МакКри / Joel McCrea, Ника Мина / Nika Mina, Роберт Фуллер / Robert Fuller, Патрик Уэйн / Patrick Wayne
Описание:
Красочный фильм с неторопливо развивающимся действием и красавцем-жеребцом в главной роли. Охотясь за неуловимым мустангом, ковбой, бывшая звезда родео, встречает индейского мальчика-сироту, убежавшего из школы. Их дружба даёт каждому из них новую опору в жизни...


В фильме - последняя роль звезды американского кино середины 20 века - Джоэла МакКри.

[b]Качество
: DVDRip
Формат: mkv
Видео: AVC, 1 863 Kbps, 704 x 380, 1.853, 23.976 fps
Аудио: AC3, 2 ch, 256 kbps, 48 kHz | original English
General
Unique ID : 234974745491474029194768524130517783988 (0xB0C67D66EB7143F185AB045C5CBC15B4)
Complete name : Mustang Country - 1976.mkv
Format : Matroska
Format version : Version 1
File size : 1.18 GiB
Duration : 1h 20mn
Overall bit rate : 2 108 Kbps
Encoded date : UTC 2016-04-05 07:40:20
Writing application : mkvmerge v2.4.0 ('Fumbling Towards Ecstasy') built on Oct 11 2008 20:13:15
Writing library : libebml v0.7.7 + libmatroska v0.8.1
Video #1
ID : 1
Format : AVC
Format/Info : Advanced Video Codec
Format profile : [email protected]
Format settings, CABAC : Yes
Format settings, ReFrames : 9 frames
Codec ID : V_MPEG4/ISO/AVC
Duration : 1h 20mn
Bit rate : 1 863 Kbps
Width : 704 pixels
Height : 380 pixels
Display aspect ratio : 1.853
Frame rate : 23.976 fps
Color space : YUV
Chroma subsampling : 4:2:0
Bit depth : 8 bits
Scan type : Progressive
Bits/(Pixel*Frame) : 0.290
Stream size : 1.01 GiB (86%)
Title : Guild55
Writing library : x264 core 120 r2164 da19765
Encoding settings : cabac=1 / ref=9 / deblock=1:-1:-1 / analyse=0x3:0x113 / me=hex / subme=7 / psy=1 / psy_rd=1.00:0.15 / mixed_ref=1 / me_range=16 / chroma_me=1 / trellis=1 / 8x8dct=1 / cqm=0 / deadzone=21,11 / fast_pskip=1 / chroma_qp_offset=-3 / threads=3 / sliced_threads=0 / nr=0 / decimate=1 / interlaced=0 / bluray_compat=0 / constrained_intra=0 / bframes=6 / b_pyramid=2 / b_adapt=1 / b_bias=0 / direct=1 / weightb=1 / open_gop=0 / weightp=2 / keyint=240 / keyint_min=23 / scenecut=40 / intra_refresh=0 / rc_lookahead=40 / rc=2pass / mbtree=1 / bitrate=1863 / ratetol=1.0 / qcomp=0.60 / qpmin=0 / qpmax=69 / qpstep=4 / cplxblur=20.0 / qblur=0.5 / ip_ratio=1.40 / aq=1:1.00
Language : English
Audio #2
ID : 2
Format : AC-3
Format/Info : Audio Coding 3
Mode extension : CM (complete main)
Codec ID : A_AC3
Duration : 1h 20mn
Bit rate mode : Constant
Bit rate : 256 Kbps
Channel(s) : 2 channels
Channel positions : Front: L R
Sampling rate : 48.0 KHz
Bit depth : 16 bits
Compression mode : Lossy
Stream size : 146 MiB (12%)
Title : English
Language : English
Text #3
ID : 3
Format : UTF-8
Codec ID : S_TEXT/UTF8
Codec ID/Info : UTF-8 Plain Text
Title : sub rus (by adamovna)
Language : Russian
Text #4
ID : 4
Format : UTF-8
Codec ID : S_TEXT/UTF8
Codec ID/Info : UTF-8 Plain Text
Title : sub eng (by Zaphod)

[/IMG][/URL]
   
Торрент: Зарегистрирован [05 апр 2016, 13:48] Скачать торрент
Скачать торрент
О MediaGet
[ Размер 12.24 КБ / Просмотров 66 ]

Статус:
 
Приватный: Нет (DHT включён)
Размер: 1.18 ГБ (1 264 937 882 байт)
   
Аватара пользователя

Сид-сен-сей
Сид-сен-сей
 
Раздал: 24.31 ТБ
Скачал: 1.72 ТБ
Ратио: 20.885
Сообщения: 7897
Фото: 125
Зарегистрирован: 26 ноя 2012, 17:20
Medals: 2
1000 раздач! (1) Меценат №2 (1)

Вернуться в Зарубежные фильмы (Rip's)

Кто сейчас на конференции

Зарегистрированные пользователи: нет зарегистрированных пользователей

Ресурс не предоставляет электронные версии произведений, а занимается лишь коллекционированием и каталогизацией ссылок, присылаемых и публикуемых на форуме нашими читателями. Если вы являетесь правообладателем какого-либо представленного материала и не желаете чтобы ссылка на него находилась в нашем каталоге, свяжитесь с нами и мы незамедлительно удалим её. Файлы для обмена на трекере предоставлены пользователями сайта, и администрация не несёт ответственности за их содержание. Просьба не заливать файлы, защищенные авторскими правами, а также файлы нелегального содержания!
cron